1 сезон

1 сезон

iTunes

1

КиноПоиск HD

Кинопоиск HD

iTunes

13

1 сезон

RePack

30

Ultimate

ВАЖНО

ИГРА 18+

pack

RePack

MK11
pack

Легкие деньги

RePack

jed

RePack

fifa19

RePack

RDR2

RePack

NEED FOR SPEED™ PAYBACK

4 сезон

9 сезон

Бесстыжие 9 сезон

Все сериалы

все сериалы на PB.wtf

RePack

FAR CRY 5
  
Magnet ссылка

Кинотюрьма будущего / Dead-End Drive In (Брайан Тренчард-Смит) [1986 г., ужасы, фантастика, боевик, триллер, драма, BDRip 720p] AVO [Котов] piratbit.pw

Кинотюрьма будущего через торрент piratbit.pw

Размер: 5.37 GB | Добавлен: 2 года 7 мес. назад | Торрент скачан:8 раз
Скачать  

12-09-2018 19:31 Кинотюрьма будущего Скачать торрент  

Кинотюрьма будущего / Dead-End Drive In
Год выпуска: 1986
Страна: Австралия
Жанр: Ужасы, фантастика, боевик, триллер, драма
Продолжительность: 01:26:59
Перевод: Авторский (одноголосый) Котов
Субтитры: Английские

Режиссер: Брайан Тренчард-Смит

rating

В ролях: Мелисса Дэвис, Алан МакКуин, Натали МакКарри, Ганди МакИнтайр, Гарри Ху, Джереми Шадлоу, Сэнди Лиллингстон, Олли Холл, Билл Лайл, Дэйв Гибсон, Нед Мэннинг, Питер Уитфорд, Мюррэй Фэйхи, Дэвид Джонс, Бернадетт Фостер, Марджи Ди Ферранти, Бретт Климо, Дезире Смит, Кен Снодграсс, Вилбур Вильде, Рон Синклер, Лин Коллингвуд

Описание: Действие фильма происходит в будущем. Герой фильма по кличке «Краб» и его подружка Кармен собираются немного поразвлечься. Но они попадают вовсе не в парк развлечений. Это вроде концентрационного лагеря для отщепенцев — слабых, безработных и недееспособных. Запертый в «NTупике» Краб борется за свободу, проявляя незаурядную силу воли, до того ему не свойственную…

Качество: BDRip 720p
Формат: MKV
Видео кодек: MPEG-4 AVC
Аудио кодек: AC3
Видео: MPEG-4 AVC, 8000 Кбит/с, 1280x546, 23.976 кадр/с
Аудио#1: Русский, AC3, 2 ch, 192 Кбит/с
Аудио#2: Английский, AC3, 2 ch, 640 Кбит/с
Видео
Идентификатор : 1
Формат : AVC
Формат/Информация : Advanced Video Codec
Профиль формата : High@L4.1
Настройки формата : CABAC / 11 Ref Frames
Параметр CABAC формата : Да
Параметр RefFrames формата : 11 кадров
Идентификатор кодека : V_MPEG4/ISO/AVC
Продолжительность : 1 ч. 26 м.
Битрейт : 8000 Кбит/сек
Ширина : 1280 пикселей
Высота : 546 пикселей
Соотношение сторон : 2,35:1
Режим частоты кадров : Постоянный
Частота кадров : 23,976 (24000/1001) кадра/сек
Цветовое пространство : YUV
Субдискретизация насыщенности : 4:2:0
Битовая глубина : 8 бит
Тип развёртки : Прогрессивная
Бит/(Пиксели*Кадры) : 0.477
Размер потока : 4,86 Гбайт (91%)
Библиотека кодирования : x264 core 148 r2638 7599210
Настройки программы : cabac=1 / ref=11 / deblock=1:-3:-3 / analyse=0x3:0x133 / me=umh / subme=11 / psy=1 / psy_rd=1.00:0.50 / mixed_ref=1 / me_range=32 / chroma_me=1 / trellis=2 / 8x8dct=1 / cqm=0 / deadzone=21,11 / fast_pskip=0 / chroma_qp_offset=-4 / threads=6 / lookahead_threads=1 / sliced_threads=0 / nr=0 / decimate=0 / interlaced=0 / bluray_compat=0 / constrained_intra=0 / bframes=10 / b_pyramid=2 / b_adapt=2 / b_bias=0 / direct=3 / weightb=1 / open_gop=0 / weightp=2 / keyint=240 / keyint_min=23 / scenecut=40 / intra_refresh=0 / rc_lookahead=60 / rc=2pass / mbtree=0 / bitrate=8000 / ratetol=1.0 / qcomp=0.65 / qpmin=0 / qpmax=69 / qpstep=4 / cplxblur=20.0 / qblur=0.5 / vbv_maxrate=62500 / vbv_bufsize=78125 / nal_hrd=none / filler=0 / ip_ratio=1.40 / pb_ratio=1.30 / aq=1:1.00
Default : Да
Forced : Нет

Аудио #1
Идентификатор : 2
Формат : AC-3
Формат/Информация : Audio Coding 3
Идентификатор кодека : A_AC3
Продолжительность : 1 ч. 27 м.
Вид битрейта : Постоянный
Битрейт : 192 Кбит/сек
Каналы : 2 канала
Расположение каналов : Front: L R
Частота : 48,0 КГц
Частота кадров : 31,250 кадров/сек (1536 SPF)
Битовая глубина : 16 бит
Метод сжатия : С потерями
Размер потока : 120 Мбайт (2%)
Язык : Russian
ServiceKind/String : Complete Main
Default : Да
Forced : Нет

Аудио #2
Идентификатор : 3
Формат : AC-3
Формат/Информация : Audio Coding 3
Идентификатор кодека : A_AC3
Продолжительность : 1 ч. 27 м.
Вид битрейта : Постоянный
Битрейт : 640 Кбит/сек
Каналы : 2 канала
Расположение каналов : Front: L R
Частота : 48,0 КГц
Частота кадров : 31,250 кадров/сек (1536 SPF)
Битовая глубина : 16 бит
Метод сжатия : С потерями
Размер потока : 399 Мбайт (7%)
Язык : English
ServiceKind/String : Complete Main
Default : Нет
Forced : Нет

Текст
Идентификатор : 4
Формат : UTF-8
Идентификатор кодека : S_TEXT/UTF8
Идентификатор кодека/Информация : UTF-8 Plain Text
Продолжительность : 1 ч. 25 м.
Битрейт : 40 бит/сек
ElementCount : 757
Размер потока : 25,6 Кбайт (0%)
Язык : English
Default : Нет
Forced : Нет


piratbit.pw



Скачать Кинотюрьма будущего через торрент https://pic1.kartinco.top/images/11/y79va.jpg Скачать фильм Кинотюрьма будущего через торрент бесплантно в хорошем качестве Описание: Действие фильма происходит в будущем. Герой фильма по кличке «Краб» и его подружка Кармен собираются немного поразвлечься. Но они ... 5 10 1
Торрент: Зарегистрирован [2018-09-12 19:31] · скачан: 8 раз
Статус: √ проверено
Размер: 5.37 GB
Как cкачать? Как скачать Кинотюрьма будущего через торрент | UTorrent

% Раздел Тема Автор DL S | L
Фильмы до 2000 г. [ 1.46 GB ] Кинотюрьма будущего / Кинотеатр без возврата / Dead End Drive-In [1986 HDRip] killermax2013 Скачать
1 | 0

28-11-2019 20:33  

Отключить всю рекламу на сайте

13-09-2018 07:14 Кинотюрьма будущего Скачать торрент  

Топик был перенесен из форума Оформление раздач (Кино, Видео и ТВ) в форум Фильмы с авторской озвучкой


schultzpiratbit.pw



    Дорогой пользователь! Огромная просьба, поблагодарите релизера, оцените раздачу и оставьте свои комментарий, если Вы скачали Кинотюрьма будущего через торрент бесплатно! Внесите свою лепту в развитие PiratBit!
    Комментировать посты могут только пользователи прошедшие не сложную регистрацию
    Показать сообщения:    

    Кинотюрьма будущего через торрент
    Скачать бесплатно Кинотюрьма будущего
    Кинотюрьма будущего скачать торрент
    Кинотюрьма будущего смотреть онлайн
    Cкачать фильм Кинотюрьма будущего бесплатно
    Кинотюрьма будущего скачать торрент в хорошем качестве
    Кинотюрьма будущего смотреть онлайн бесплатно в хорошем качестве


    Вы не можете начинать темы
    Вы не можете отвечать на сообщения
    Вы не можете редактировать свои сообщения
    Вы не можете удалять свои сообщения
    Вы не можете голосовать в опросах
    Вы не можете прикреплять файлы к сообщениям
    Вы можете скачивать файлы