1 сезон

1 сезон

iTunes

1

КиноПоиск HD

Кинопоиск HD

iTunes

13

1 сезон

RePack

30

Ultimate

ВАЖНО

ИГРА 18+

pack

RePack

MK11
pack

Легкие деньги

RePack

jed

RePack

fifa19

RePack

RDR2

RePack

NEED FOR SPEED™ PAYBACK

4 сезон

9 сезон

Бесстыжие 9 сезон

Все сериалы

все сериалы на PB.wtf

RePack

FAR CRY 5
  
Magnet ссылка

Частное торжество / A Private Function (Малкольм Маубрэй) [1984, комедия, BDRip 720p by msltel] AVO, VO piratbit.pw

Частное торжество через торрент piratbit.pw

Размер: 4.27 GB | Добавлен: 2 года 7 мес. назад | Торрент скачан:0 раз
Скачать  

07-09-2018 07:47 Частное торжество Скачать торрент  

Название: Частное торжество
Оригинальное название: A Private Function
Год выпуска: 1984
Страна: Великобритания
Жанр: комедия
Продолжительность: 01:36:16
Перевод: авторский, закадровый одноголосый

Режиссер: Малкольм Маубрэй
В ролях: Майкл Пэйлин, Мэгги Смит, Денхолм Эллиотт, Ричард Гриффитс, Тони Хейгарт, Джон Нормингтон, Билл Патерсон, Лиз Смит, Элисон Стэдмен, Джим Картер

О фильме: 1947 год. Рядовые англичане в первые годы после войны со своим строго установленным дневным рационом живут чуть ли не впроголодь, а уж о мясе, тем более беконе, могут только мечтать. Мясников и фермеров, во избежание расцвета черного рынка, строго контролируют власти. Но нет таких правил, которые нельзя обойти. Когда принцесса Елизавета собралась замуж, группа бизнесменов провинциального английского городка решает организовать торжество в честь королевской свадьбы, чтобы своей верноподданностью впечатлить (а может подкупить) местные власти. По этому случаю они незаконно выращивают на ферме свинью. Накануне события о “левой” свинье узнаёт скромный педикюрщик Гилберт Чилверс, подкаблучник у слегка выжившей из ума тёщи и амбициозной жены, страдающей от того, что у них нет доступа ни в высшее общество, ни на частные закрытые вечеринки, ни к мясу из-под прилавка. Вокруг свинки разворачиваются макбетовские страсти... Чьим же торжеством обернётся эта история?



Качество: BDRip 720p
Формат: MKV
Видео: MPEG-4 AVC, 5779 Кбит/с, 1280x720
Аудио 1: русский, AC3, 192 kbps, 2 ch, 48 kHz [авторский, Антон Алексеев]
Аудио 2: русский, AC3, 192 kbps, 2 ch, 48 kHz [закадровый одноголосый, Алексей Чуев, по субтитрам granzo]
Аудио 3: английский, AC3, 192 kbps, 2 ch, 48 kHz [оригинал]
Субтитры 1: русские (granzo)
Субтитры 2: английские
Общее
Уникальный идентификатор : 209504279772778241124660429714161669651 (0x9D9D0E7CA0AF9755BEF44B81C2C81613)
Полное имя : D:\Video\Частное торжество.1984.BDRip.720p by msltel.mkv
Формат : Matroska
Версия формата : Version 4
Размер файла : 4,27 Гбайт
Продолжительность : 1 ч. 36 м.
Общий поток : 6358 Кбит/сек
Название фильма : Rip by msltel
Дата кодирования : UTC 2018-09-07 04:06:28
Программа кодирования : mkvmerge v8.2.0 ('World of Adventure') 64bit
Библиотека кодирования : libebml v1.3.1 + libmatroska v1.4.2

Видео
Идентификатор : 1
Формат : AVC
Формат/Информация : Advanced Video Codec
Профиль формата : High@L4.1
Настройки формата : CABAC / 9 Ref Frames
Параметр CABAC формата : Да
Параметр RefFrames формата : 9 кадров
Идентификатор кодека : V_MPEG4/ISO/AVC
Продолжительность : 1 ч. 36 м.
Битрейт : 5779 Кбит/сек
Ширина : 1280 пикселей
Высота : 720 пикселей
Соотношение сторон : 16:9
Режим частоты кадров : Постоянный
Частота кадров : 23,976 (24000/1001) кадра/сек
Цветовое пространство : YUV
Субдискретизация насыщенности : 4:2:0
Битовая глубина : 8 бит
Тип развёртки : Прогрессивная
Бит/(Пиксели*Кадры) : 0.262
Размер потока : 3,89 Гбайт (91%)
Библиотека кодирования : x264 core 155 r2901 7d0ff22
Настройки программы : cabac=1 / ref=9 / deblock=1:-3:-2 / analyse=0x3:0x113 / me=umh / subme=11 / psy=1 / psy_rd=1.00:0.15 / mixed_ref=1 / me_range=32 / chroma_me=1 / trellis=2 / 8x8dct=1 / cqm=0 / deadzone=21,11 / fast_pskip=0 / chroma_qp_offset=-3 / threads=6 / lookahead_threads=1 / sliced_threads=0 / nr=0 / decimate=1 / interlaced=0 / bluray_compat=0 / constrained_intra=0 / bframes=7 / b_pyramid=2 / b_adapt=2 / b_bias=0 / direct=1 / weightb=1 / open_gop=0 / weightp=2 / keyint=230 / keyint_min=23 / scenecut=40 / intra_refresh=0 / rc_lookahead=40 / rc=crf / mbtree=1 / crf=17.0 / qcomp=0.60 / qpmin=0 / qpmax=69 / qpstep=4 / vbv_maxrate=62500 / vbv_bufsize=78125 / crf_max=0.0 / nal_hrd=none / filler=0 / ip_ratio=1.40 / aq=1:1.00
Язык : English
Default : Да
Forced : Нет

Аудио #1
Идентификатор : 2
Формат : AC-3
Формат/Информация : Audio Coding 3
Коммерческое название : Dolby Digital
Идентификатор кодека : A_AC3
Продолжительность : 1 ч. 36 м.
Вид битрейта : Постоянный
Битрейт : 192 Кбит/сек
Каналы : 2 канала
Channel layout : L R
Частота : 48,0 КГц
Частота кадров : 31,250 кадров/сек (1536 SPF)
Битовая глубина : 16 бит
Метод сжатия : С потерями
Размер потока : 132 Мбайт (3%)
Заголовок : Антон Алексеев
Язык : Russian
ServiceKind/String : Complete Main
Default : Да
Forced : Нет

Аудио #2
Идентификатор : 3
Формат : AC-3
Формат/Информация : Audio Coding 3
Коммерческое название : Dolby Digital
Идентификатор кодека : A_AC3
Продолжительность : 1 ч. 36 м.
Вид битрейта : Постоянный
Битрейт : 192 Кбит/сек
Каналы : 2 канала
Channel layout : L R
Частота : 48,0 КГц
Частота кадров : 31,250 кадров/сек (1536 SPF)
Битовая глубина : 16 бит
Метод сжатия : С потерями
Размер потока : 132 Мбайт (3%)
Заголовок : Алексей Чуев, по субтитрам granzo
Язык : Russian
ServiceKind/String : Complete Main
Default : Нет
Forced : Нет

Аудио #3
Идентификатор : 4
Формат : AC-3
Формат/Информация : Audio Coding 3
Коммерческое название : Dolby Digital
Идентификатор кодека : A_AC3
Продолжительность : 1 ч. 36 м.
Вид битрейта : Постоянный
Битрейт : 192 Кбит/сек
Каналы : 2 канала
Channel layout : L R
Частота : 48,0 КГц
Частота кадров : 31,250 кадров/сек (1536 SPF)
Битовая глубина : 16 бит
Метод сжатия : С потерями
Размер потока : 132 Мбайт (3%)
Заголовок : original
Язык : English
ServiceKind/String : Complete Main
Default : Нет
Forced : Нет

Текст #1
Идентификатор : 5
Формат : UTF-8
Идентификатор кодека : S_TEXT/UTF8
Идентификатор кодека/Информация : UTF-8 Plain Text
Продолжительность : 1 ч. 31 м.
Битрейт : 92 бит/сек
ElementCount : 1184
Размер потока : 62,4 Кбайт (0%)
Заголовок : русские granzo
Язык : Russian
Default : Нет
Forced : Нет

Текст #2
Идентификатор : 6
Формат : UTF-8
Идентификатор кодека : S_TEXT/UTF8
Идентификатор кодека/Информация : UTF-8 Plain Text
Продолжительность : 1 ч. 30 м.
Битрейт : 55 бит/сек
ElementCount : 1229
Размер потока : 36,5 Кбайт (0%)
Заголовок : английские
Язык : English
Default : Нет
Forced : Нет
piratbit.pw



Скачать Частное торжество через торрент https://d.radikal.ru/d23/1809/5f/6961d6ab070f.jpg Скачать фильм Частное торжество через торрент бесплантно в хорошем качестве О фильме: 1947 год. Рядовые англичане в первые годы после войны со своим строго установленным дневным рационом живут чуть ли не впроголодь, ... 5 10 1
Info! Золотая раздача, скачанное не засчитывается.
Торрент: Зарегистрирован [2018-09-07 07:47] · скачан: 0 раз
Статус: √ проверено
Размер: 4.27 GB
Как cкачать? Как скачать Частное торжество через торрент | UTorrent

% Раздел Тема Автор DL S | L
Фильмы с авторской озвучкой [ 11.69 GB ] Частное торжество / A Private Function [1984 BDRip 1080p by msltel] AVO VO msltel Скачать
1 | 0

28-11-2019 20:33  

Отключить всю рекламу на сайте

    Дорогой пользователь! Огромная просьба, поблагодарите релизера, оцените раздачу и оставьте свои комментарий, если Вы скачали Частное торжество через торрент бесплатно! Внесите свою лепту в развитие PiratBit!
    Комментировать посты могут только пользователи прошедшие не сложную регистрацию
    Показать сообщения:    

    Частное торжество через торрент
    Скачать бесплатно Частное торжество
    Частное торжество скачать торрент
    Частное торжество смотреть онлайн
    Cкачать фильм Частное торжество бесплатно
    Частное торжество скачать торрент в хорошем качестве
    Частное торжество смотреть онлайн бесплатно в хорошем качестве


    Вы не можете начинать темы
    Вы не можете отвечать на сообщения
    Вы не можете редактировать свои сообщения
    Вы не можете удалять свои сообщения
    Вы не можете голосовать в опросах
    Вы не можете прикреплять файлы к сообщениям
    Вы можете скачивать файлы