Marvel's Avengers Deluxe Edition (супер цена) 159р. Внимание количество ограничено!!!

2 сезон

iTunes

iTunes

1

iTunes

iTunes

iTunes

WEBRip

iTunes

30
pack

Новость дня

ВАЖНО

!!Акция!!

Alien_RageХит недели

RePack

Horizon Zero Dawn

ИГРА 18+

pack

RePack

jed

!!Акция!!

Alien_Rage

RePack

fifa19

RePack

Assassins Creed: Odyssey

RePack

NEED FOR SPEED™ PAYBACK

4 сезон

9 сезон

Бесстыжие 9 сезон

Все сериалы

все сериалы на PB.wtf

RePack

FAR CRY 5
  

Нахаленок (Евгений Карелов) [1961, СССР, детский, SATRip-AVC от AVP Studio] piratbit.pw

Нахаленок через торрент piratbit.pw

Размер: 745 MB | Добавлен: 2 года назад | Торрент скачан:15 раз
Скачать  

04-09-2018 09:37 Нахаленок Скачать торрент  

Нахаленок
Страна: СССР
Производство: Мосфильм

Жанр: детский
Год выпуска: 1961
Продолжительность: 00:53:52

Перевод: Не требуется
Cубтитры: нет
Оригинальная аудиодорожка: русский

Режиссер: Евгений Карелов

В ролях:
Владимир Семёнов, Даниил Нетребин, Вера Бурлакова, Даниил Ильченко, Пётр Савин, Владимир Гусев, Виктор Колпаков, Владимир Пицек, Эмма Цесарская, Игорь Савельев...
Об актёрах подробней

Описание:
Телефильм по мотивам "Донских рассказов" М.Шолохова.
Большевик Фома Коршунов возвращается в станицу. Вскоре у семилетнего Мишки появляется новое прозвище "Коммуненок". Когда в станицу врываются бандиты и убивают Фому Коршунова, Мишка, зная, что красные недалеко, с помощью деда седлает коня и спешит предупредить их об опасности...

Источник: DVB
Качество видео: SATRip-AVC
Формат видео: MKV

Видео: 716->760х570 (4:3), 25 fps, H264 ~ 1739 kbps avg, 0.170 bit/pixel
Аудио: 48 kHz, Dolby Digital AC3 2.0, 192 kbps

Раздача от:
Общее
Полное имя : Nahalyonok.1961.SATRip-AVC_[New-team]_by_AVP_Studio.mkv
Формат : Matroska
Версия формата : Version 2
Размер файла : 745 Мбайт
Продолжительность : 53 м. 51 с.
Общий поток : 1933 Кбит/сек
Дата кодирования : UTC 2018-08-31 16:05:53
Программа кодирования : mkvmerge v6.1.0 ('Old Devil') built on Mar 4 2013 09:10:42
Библиотека кодирования : libebml v1.3.0 + libmatroska v1.4.0

Видео
Идентификатор : 1
Формат : AVC
Формат/Информация : Advanced Video Codec
Профиль формата : High@L4.1
Настройки формата : CABAC / 10 Ref Frames
Параметр CABAC формата : Да
Параметр RefFrames формата : 10 кадров
Идентификатор кодека : V_MPEG4/ISO/AVC
Продолжительность : 53 м. 51 с.
Битрейт : 1739 Кбит/сек
Ширина : 716 пикселей
Высота : 570 пикселей
Соотношение сторон : 4:3
Режим частоты кадров : Постоянный
Частота кадров : 25,000 кадров/сек
Цветовое пространство : YUV
Субдискретизация насыщенности : 4:2:0
Битовая глубина : 8 бит
Тип развёртки : Прогрессивная
Бит/(Пиксели*Кадры) : 0.170
Размер потока : 656 Мбайт (88%)
Библиотека кодирования : x264 core 157 r2932 303c484
Настройки программы : cabac=1 / ref=10 / deblock=1:-2:-1 / analyse=0x3:0x113 / me=umh / subme=10 / psy=1 / psy_rd=1.00:0.00 / mixed_ref=1 / me_range=32 / chroma_me=1 / trellis=2 / 8x8dct=1 / cqm=0 / deadzone=21,11 / fast_pskip=1 / chroma_qp_offset=-2 / threads=6 / lookahead_threads=1 / sliced_threads=0 / nr=0 / decimate=0 / interlaced=0 / bluray_compat=0 / constrained_intra=0 / bframes=8 / b_pyramid=2 / b_adapt=2 / b_bias=0 / direct=3 / weightb=1 / open_gop=0 / weightp=2 / keyint=250 / keyint_min=25 / scenecut=40 / intra_refresh=0 / rc=2pass / mbtree=0 / bitrate=1739 / ratetol=1.0 / qcomp=0.60 / qpmin=0 / qpmax=69 / qpstep=4 / cplxblur=20.0 / qblur=0.5 / ip_ratio=1.40 / pb_ratio=1.30 / aq=1:1.00
Default : Да
Forced : Нет

Аудио
Идентификатор : 2
Формат : AC-3
Формат/Информация : Audio Coding 3
Идентификатор кодека : A_AC3
Продолжительность : 53 м. 51 с.
Вид битрейта : Постоянный
Битрейт : 192 Кбит/сек
Каналы : 2 канала
Расположение каналов : Front: L R
Частота : 48,0 КГц
Частота кадров : 31,250 кадров/сек (1536 SPF)
Битовая глубина : 16 бит
Метод сжатия : С потерями
Размер потока : 74,0 Мбайт (10%)
Default : Да
Forced : Нет
piratbit.pw



Скачать Нахаленок через торрент http://picplus.ru/img/1809/04/99af4a24.png Скачать фильм Нахаленок через торрент бесплантно в хорошем качестве Описание:Телефильм по мотивам "Донских рассказов" М.Шолохова.Большевик Фома Коршунов возвращается в станицу. Вскоре у семилетнего Мишки ... 10 10 2
Info! Золотая раздача, скачанное не засчитывается.
Торрент: Зарегистрирован [2018-09-04 09:37] · скачан: 15 раз
Статус: √ проверено
Размер: 745 MB
Как cкачать? Как скачать Нахаленок через торрент | qTorrent

% Раздел Тема Автор DL S | L
Детские отечественные фильмы [ 744 MB ] Нахаленок [1961 СССР детский SATRip от AVP Studio] AVP Studio Скачать
1 | 0
Кино СССР [ 736 MB ] Нахаленок [1961 Детский DVDRip] DJERG Скачать
1 | 0

28-11-2019 20:33  

Отключить всю рекламу на сайте

04-09-2018 11:42 Нахаленок Скачать торрент  

Топик был перенесен из форума Кино СССР в форум Детские отечественные фильмы


bober100piratbit.pw



04-09-2018 14:33 Нахаленок Скачать торрент  

так себе фильм ... многовато пропаганды коммунистической , что не представляет кинематографической ценности .piratbit.pw



    Дорогой пользователь! Огромная просьба, поблагодарите релизера, оцените раздачу и оставьте свои комментарий, если Вы скачали Нахаленок через торрент бесплатно! Внесите свою лепту в развитие PiratBit!
    Комментировать посты могут только пользователи прошедшие не сложную регистрацию
    Показать сообщения:    

    Нахаленок через торрент
    Скачать бесплатно Нахаленок
    Нахаленок скачать торрент
    Нахаленок смотреть онлайн
    Cкачать фильм Нахаленок бесплатно
    Нахаленок скачать торрент в хорошем качестве
    Нахаленок смотреть онлайн бесплатно в хорошем качестве


    Вы не можете начинать темы
    Вы не можете отвечать на сообщения
    Вы не можете редактировать свои сообщения
    Вы не можете удалять свои сообщения
    Вы не можете голосовать в опросах
    Вы не можете прикреплять файлы к сообщениям
    Вы можете скачивать файлы