Ссылка на приватное зеркало нашего сайта всего за 1$. Внимание количество ограничено!!!

2 сезон

iTunes

1 сезон

1

2 сезон

2 сезон

iTunes

1 сезон

RePack

30

Ultimate

ВАЖНО

ИГРА 18+

pack

RePack

MK11
pack

Забери бонус

RePack

jed

!!Акция!!

Alien_Rage

RePack

fifa19

RePack

Assassins Creed: Odyssey

RePack

NEED FOR SPEED™ PAYBACK

4 сезон

9 сезон

Бесстыжие 9 сезон

Все сериалы

все сериалы на PB.wtf

RePack

FAR CRY 5
  

Три горы / Drei Zinnen (Three Peaks) (Ян Цабайль / Jan Zabeil) [2017, Германия, Италия, Драма, HDTVRip-AVC] [DVO] (datynet & Galina Vasyukova) piratbit.pw

Три горы через торрент piratbit.pw

Размер: 1.4 GB | Добавлен: 2 года 2 мес. назад | Торрент скачан:71 раз
Скачать  

01-09-2018 18:31 Три горы Скачать торрент  

Три горы / Drei Zinnen (Three Peaks)
Страна: Германия, Италия
Жанр: Драма
Год выпуска: 2017
Продолжительность: 01:28:17
Озвучание: Любительское (двухголосое закадровое) datynet & Galina Vasyukova; по переводу: Куценко
Субтитры: нет

Режиссер: Ян Цабайль / Jan Zabeil

В ролях: Александр Фелинг, Беренис Бежо, Ариан Монтгомери.

Описание: У Аарона есть желание стать одной семьей со своей девушкой и ее 8-летним сыном, но высоко в итальянских Доломитах его попытки завоевать признание мальчика превращается в опасную игру.




Доп. информация: 2 победы и 1 номинация:
Hof International Film Festival 2017
Locarno International Film Festival 2017
Palm Springs International Film Festival 2018




Сэмпл: http://multi-up.com/1207609

Качество видео: HDTVRip-AVC
Формат видео: MKV
Видео: 720x304 (2.35:1), 25 fps, MPEG4 Video (H264) Main@L3 ~2 114 kbps avg, 0.386 bit/pixel
Аудио: 48 kHz, MPEG Layer 3, 2 ch, ~ 192 kbps avg
Format : Matroska
Format version : Version 2
File size : 1.40 GiB
Duration : 1 h 28 min
Overall bit rate : 2 269 kb/s
Encoded date : UTC 2018-08-31 10:26:34 / UTC 2018-08-31 10:26:34
Writing application : Lavf54.63.104
Writing library : Lavf54.63.104

Video
ID : 1
Format : AVC
Format/Info : Advanced Video Codec
Format profile : Main@L3
Format settings, CABAC : Yes
Format settings, RefFrames : 1 frame
Codec ID : V_MPEG4/ISO/AVC
Duration : 1 h 28 min
Bit rate : 2 114 kb/s
Width : 720 pixels
Height : 304 pixels
Display aspect ratio : 2.35:1
Frame rate mode : Constant
Frame rate : 25.000 FPS
Color space : YUV
Chroma subsampling : 4:2:0
Bit depth : 8 bits
Scan type : Progressive
Bits/(Pixel*Frame) : 0.386
Stream size : 1.25 GiB (90%)
Writing library : x264 core 129
Default : Yes
Forced : No

Audio
ID : 2
Format : MPEG Audio
Format version : Version 1
Format profile : Layer 3
Mode : Joint stereo
Mode extension : MS Stereo
Codec ID : A_MPEG/L3
Codec ID/Hint : MP3
Duration : 1 h 28 min
Bit rate mode : Constant
Bit rate : 192 kb/s
Channel(s) : 2 channels
Sampling rate : 48.0 kHz
Compression mode : Lossy
Stream size : 121 MiB (8%)
Default : Yes
скриншот  скриншот  скриншот  
piratbit.pw



Скачать Три горы через торрент https://b.radikal.ru/b10/1809/08/1068a3dfd0d7.jpg Скачать фильм Три горы через торрент бесплантно в хорошем качестве Описание: У Аарона есть желание стать одной семьей со своей девушкой и ее 8-летним сыном, но высоко в итальянских Доломитах его попытки ... 10 10 2
Торрент: Зарегистрирован [2018-09-01 18:31] · скачан: 71 раз
Статус: T временная
Размер: 1.4 GB
Как cкачать? Как скачать Три горы через торрент | qTorrent

28-11-2019 20:33  

Отключить всю рекламу на сайте

    Дорогой пользователь! Огромная просьба, поблагодарите релизера, оцените раздачу и оставьте свои комментарий, если Вы скачали Три горы через торрент бесплатно! Внесите свою лепту в развитие PiratBit!
    Комментировать посты могут только пользователи прошедшие не сложную регистрацию
    Показать сообщения:    

    Три горы через торрент
    Скачать бесплатно Три горы
    Три горы скачать торрент
    Три горы смотреть онлайн
    Cкачать фильм Три горы бесплатно
    Три горы скачать торрент в хорошем качестве
    Три горы смотреть онлайн бесплатно в хорошем качестве


    Вы не можете начинать темы
    Вы не можете отвечать на сообщения
    Вы не можете редактировать свои сообщения
    Вы не можете удалять свои сообщения
    Вы не можете голосовать в опросах
    Вы не можете прикреплять файлы к сообщениям
    Вы можете скачивать файлы