Ссылка на приватное зеркало нашего сайта всего за 1$. Внимание количество ограничено!!!

2 сезон

iTunes

1 сезон

1

iTunes

iTunes

iTunes

1 сезон

RePack

30

ИГРА 18+

pack

ВАЖНО

!!Акция!!

Alien_RageХит недели

RePack

MK11
pack

Забери бонус

RePack

jed

!!Акция!!

Alien_Rage

RePack

fifa19

RePack

Assassins Creed: Odyssey

RePack

NEED FOR SPEED™ PAYBACK

4 сезон

9 сезон

Бесстыжие 9 сезон

Все сериалы

все сериалы на PB.wtf

RePack

FAR CRY 5
  

Идеальная пара (Ольга Доброва-Куликова) [2014 г., Мелодрама, HDTVRip] piratbit.pw

Идеальная пара через торрент piratbit.pw

Размер: 1.37 GB | Добавлен: 2 года 1 мес. назад | Торрент скачан:69 раз
Скачать  

01-09-2018 12:29 Идеальная пара Скачать торрент  

Идеальная пара
Год выпуска: 2014

Страна: Россия

Жанр: Мелодрама

Продолжительность: 01:29:39

Режиссер: Ольга Доброва-Куликова

В ролях: Анна Уколова, Андрей Чадов, Ирина Знаменщикова, Александр Никольский, Мария Дорогова, Виктор Маркин, Ксения Щербакова, Екатерина Варкова

Описание: Зоя – спортсменка с мужским характером. Поэтому сильному полу с ней тяжело, и они от нее сбегают. Но Зоя мечтает выйти замуж и завести детей. Кеша – холостяк, живет с родителями. Однажды он уходит из дома с намерением жениться на первой встречной. Ей оказывается Зоя, которая решает, что сможет сделать из Кеши идеального мужа. Он предлагает Зое переделать друг друга: день она, день он. Кеша, наконец, находит женщину своей мечты, которая его понимает. А Зоя встречает отличного парня. Однако скоро обнаруживается, что "переделка" не прошла даром...

Качество: HDTVRip
Формат: AVI
Видео кодек: XviD
Аудио кодек: AC3
Видео: XviD, 1984 Кбит/с, 720x400
Аудио: Русский, AC3, 2 ch, 192 Кбит/с
Видео
Идентификатор : 0
Формат : MPEG-4 Visual
Профиль формата : Advanced Simple@L5
Настройки формата : BVOP1 / Custom Matrix
Параметр BVOP формата : 1
Параметр QPel формата : Нет
Параметр GMC формата : Без точки перехода
Параметр матрицы формата : Выборочная
Идентификатор кодека : XVID
Идентификатор кодека/Подсказка : XviD
Продолжительность : 1 ч. 29 м.
Битрейт : 1984 Кбит/сек
Ширина : 720 пикселей
Высота : 400 пикселей
Соотношение сторон : 16:9
Частота кадров : 25,000 кадров/сек
Цветовое пространство : YUV
Субдискретизация насыщенности : 4:2:0
Битовая глубина : 8 бит
Тип развёртки : Прогрессивная
Метод сжатия : С потерями
Бит/(Пиксели*Кадры) : 0.276
Размер потока : 1,24 Гбайт (91%)
Библиотека кодирования : XviD 73

Аудио
Идентификатор : 1
Формат : AC-3
Формат/Информация : Audio Coding 3
Идентификатор кодека : 2000
Продолжительность : 1 ч. 29 м.
Вид битрейта : Постоянный
Битрейт : 192 Кбит/сек
Каналы : 2 канала
Расположение каналов : Front: L R
Частота : 48,0 КГц
Частота кадров : 31,250 кадров/сек (1536 SPF)
Битовая глубина : 16 бит
Метод сжатия : С потерями
Размер потока : 123 Мбайт (9%)
Выравнивание : Разделение по промежуткам
Продолжительность промежутка : 40 мс. (1,00 видеокадр)
Время предзагрузки промежутка : 500 мс.
ServiceKind/String : Complete Main


piratbit.pw



Скачать Идеальная пара через торрент http://pic1.kartinco.top/images/11/y3a2v.jpg Скачать фильм Идеальная пара через торрент бесплантно в хорошем качестве Описание: Зоя – спортсменка с мужским характером. Поэтому сильному полу с ней тяжело, и они от нее сбегают. Но Зоя мечтает выйти замуж и ... 7 10 3
Торрент: Зарегистрирован [2018-09-01 12:29] · скачан: 69 раз
Статус: √ проверено
Размер: 1.37 GB
Как cкачать? Как скачать Идеальная пара через торрент | qTorrent

% Раздел Тема Автор DL S | L
Наши сериалы [ 7.85 GB ] Идеальная пара / Серии: 1-10 из 10 [2001 WEBRip-AVC] aleksan55 Скачать
1 | 0
Наши фильмы (HD, WEB-DL 720p, 1080p) [ 2.43 GB ] Идеальная пара [2014 Мело HDTVRip 720p] Assasinca Скачать
1 | 0

28-11-2019 20:33  

Отключить всю рекламу на сайте

01-09-2018 16:26 Идеальная пара Скачать торрент  

Топик был перенесен из форума Оформление раздач (Кино, Видео и ТВ) в форум Наши новые фильмы 2014


schultzpiratbit.pw



    Дорогой пользователь! Огромная просьба, поблагодарите релизера, оцените раздачу и оставьте свои комментарий, если Вы скачали Идеальная пара через торрент бесплатно! Внесите свою лепту в развитие PiratBit!
    Комментировать посты могут только пользователи прошедшие не сложную регистрацию
    Показать сообщения:    

    Идеальная пара через торрент
    Скачать бесплатно Идеальная пара
    Идеальная пара скачать торрент
    Идеальная пара смотреть онлайн
    Cкачать фильм Идеальная пара бесплатно
    Идеальная пара скачать торрент в хорошем качестве
    Идеальная пара смотреть онлайн бесплатно в хорошем качестве


    Вы не можете начинать темы
    Вы не можете отвечать на сообщения
    Вы не можете редактировать свои сообщения
    Вы не можете удалять свои сообщения
    Вы не можете голосовать в опросах
    Вы не можете прикреплять файлы к сообщениям
    Вы можете скачивать файлы