1 сезон

1 сезон

iTunes

1

КиноПоиск HD

Кинопоиск HD

iTunes

13

1 сезон

RePack

30

Новинка

ВАЖНО

ИГРА 18+

pack

RePack

MK11
pack

Легкие деньги

RePack

jed

RePack

fifa19

RePack

RDR2

RePack

NEED FOR SPEED™ PAYBACK

4 сезон

9 сезон

Бесстыжие 9 сезон

Все сериалы

все сериалы на PB.wtf

RePack

FAR CRY 5
  
Magnet ссылка

Джам / Djam (Тони Гатлиф / Tony Gatlif) [2017, приключения, драма, музыка, DVDRip-AVC] [AVO] (Михаил Чадов) piratbit.pw

Джам через торрент piratbit.pw

Размер: 1.44 GB | Добавлен: 2 года 7 мес. назад | Торрент скачан:6 раз
Скачать  

30-08-2018 17:13 Джам Скачать торрент  

Джам / Djam Год выпуска: 2017
Страна: Франция, Греция, Турция
Жанр: приключения, драма, музыка
Продолжительность: 01:31:56
Перевод: Авторский (одноголосый закадровый) - Михаил Чадов по субтитрам Lisok
Субтитры: французские форсированные неотключаемые, русские полные, русские форсированные на песни
Оригинальная аудиодорожка: французский

Режиссер: Тони Гатлиф / Tony GatlifВ ролях: Дафне Патакия (Джам)
, Марин Кайон (Авриль), Симон Абкарян (Какургос), Кимон Курис (Пано), Солон Леккас (Солон), Яннис Бостанцоглу (отец), Михалис Ятропулос (таксист), Элефтерия Коми (Мария)

Описание: Джам, молодая гречанка, по просьбе своего дяди Какургоса, бывшего страстного моряка и большого поклонника греческого музыкального стиля ребетика, отправляется в Стамбул на поиски запчасти для моторной лодки. В городе она встречает Авриль, 19-летнюю француженку, работавшую волонтёром в центре гуманитарной помощи, у которой нет ни денег, ни знакомых в Турции. Джам, щедрая, бесстрашная и непредсказуемая, берёт её под своё крыло по дороге в Митилену. Путешествие наполнено встречами с разными людьми, приключениями, музыкой и надеждами.

rating

По умолчанию включена русская дорожка с русскими форсированными субтитрами.

Тип релиза: DVDRip-AVC
Контейнер: MKV
Видео: H.264/AVC, PAL, 3:2 (608x576)->(864x576), 1856 kbps, 25 fps
Аудио 1: Russian AC3, 2 ch, 192 Kbps, 48 kHz
Аудио 2: Francais AC3, 2 ch, 192 Kbps, 48 kHz

Формат субтитров: softsub (SRT)
Общее
Уникальный идентификатор : 191578219680749198071455760095946733173 (0x90209F7CC48C9FA887873833272FF675)
Полное имя : D:\RAZDACHI\DVDRip\TONY GATLIF\Djam-Tony Gatlif-2017-AC3 2.0.mkv
Формат : Matroska
Версия формата : Version 4 / Version 2
Размер файла : 1,44 Гбайт
Продолжительность : 1 ч. 31 м.
Общий поток : 2242 Кбит/сек
Дата кодирования : UTC 2018-08-28 05:27:27
Программа кодирования : mkvmerge v10.0.0 ('To Drown In You') 32bit
Библиотека кодирования : libebml v1.3.4 + libmatroska v1.4.5

Видео
Идентификатор : 1
Формат : AVC
Формат/Информация : Advanced Video Codec
Профиль формата : High@L4.1
Настройки формата : CABAC / 16 Ref Frames
Параметр CABAC формата : Да
Параметр RefFrames формата : 16 кадров
Идентификатор кодека : V_MPEG4/ISO/AVC
Продолжительность : 1 ч. 31 м.
Битрейт : 1856 Кбит/сек
Ширина : 608 пикселей
Высота : 576 пикселей
Соотношение сторон : 3:2
Соотношение сторон в оригинале : 3:2
Режим частоты кадров : Постоянный
Частота кадров : 25,000 кадров/сек
Цветовое пространство : YUV
Субдискретизация насыщенности : 4:2:0
Битовая глубина : 8 бит
Тип развёртки : Прогрессивная
Бит/(Пиксели*Кадры) : 0.212
Размер потока : 1,16 Гбайт (81%)
Заголовок : Djam
Библиотека кодирования : x264 core 152 r2851 ba24899
Настройки программы : cabac=1 / ref=16 / deblock=0:-1:-1 / analyse=0x3:0x133 / me=umh / subme=10 / psy=1 / psy_rd=1.00:0.15 / mixed_ref=1 / me_range=24 / chroma_me=1 / trellis=2 / 8x8dct=1 / cqm=0 / deadzone=21,11 / fast_pskip=1 / chroma_qp_offset=-3 / threads=3 / lookahead_threads=1 / sliced_threads=0 / nr=0 / decimate=1 / interlaced=0 / bluray_compat=0 / constrained_intra=0 / bframes=8 / b_pyramid=2 / b_adapt=2 / b_bias=0 / direct=3 / weightb=1 / open_gop=0 / weightp=2 / keyint=250 / keyint_min=10 / scenecut=40 / intra_refresh=0 / rc_lookahead=60 / rc=2pass / mbtree=1 / bitrate=1856 / ratetol=1.0 / qcomp=0.60 / qpmin=0 / qpmax=69 / qpstep=4 / cplxblur=20.0 / qblur=0.5 / ip_ratio=1.40 / aq=1:1.00
Язык : Несколько языков
Default : Да
Forced : Нет

Аудио #1
Идентификатор : 2
Формат : AC-3
Формат/Информация : Audio Coding 3
Идентификатор кодека : A_AC3
Продолжительность : 1 ч. 31 м.
Вид битрейта : Постоянный
Битрейт : 192 Кбит/сек
Каналы : 2 канала
Расположение каналов : Front: L R
Частота : 48,0 КГц
Частота кадров : 31,250 кадров/сек (1536 SPF)
Битовая глубина : 16 бит
Метод сжатия : С потерями
Размер потока : 126 Мбайт (9%)
Язык : Russian
ServiceKind/String : Complete Main
Default : Да
Forced : Нет

Аудио #2
Идентификатор : 3
Формат : AC-3
Формат/Информация : Audio Coding 3
Идентификатор кодека : A_AC3
Продолжительность : 1 ч. 31 м.
Вид битрейта : Постоянный
Битрейт : 192 Кбит/сек
Каналы : 2 канала
Расположение каналов : Front: L R
Частота : 48,0 КГц
Частота кадров : 31,250 кадров/сек (1536 SPF)
Битовая глубина : 16 бит
Метод сжатия : С потерями
Размер потока : 126 Мбайт (9%)
Язык : French
ServiceKind/String : Complete Main
Default : Нет
Forced : Нет

Текст #1
Идентификатор : 4
Формат : UTF-8
Идентификатор кодека : S_TEXT/UTF8
Идентификатор кодека/Информация : UTF-8 Plain Text
Заголовок : Russian Forced
Язык : Russian
Default : Да
Forced : Да

Текст #2
Идентификатор : 5
Формат : UTF-8
Идентификатор кодека : S_TEXT/UTF8
Идентификатор кодека/Информация : UTF-8 Plain Text
Заголовок : Russian
Язык : Russian
Default : Нет
Forced : Нет

Меню
00:00:00.000 : fr:Chapitre 01
00:08:41.440 : fr:Chapitre 02
00:19:12.160 : fr:Chapitre 03
00:30:41.960 : es:Chapitre 04
00:41:11.520 : fr:Chapitre 05
00:50:46.760 : fr:Chapitre 06
00:59:57.440 : fr:Chapitre 07
01:12:16.000 : fr:Chapitre 08
01:24:23.440 : fr:Chapitre 09
скриншот  скриншот  скриншот  
piratbit.pw



Скачать Джам через торрент http://images.vfl.ru/ii/1523773674/616afea0/21378244.jpg Скачать фильм Джам через торрент бесплантно в хорошем качестве Описание: Джам, молодая гречанка, по просьбе своего дяди Какургоса, бывшего страстного моряка и большого поклонника греческого музыкального ... 3 10 1
Торрент: Зарегистрирован [2018-08-30 17:13] · скачан: 6 раз
Статус: √ проверено
Размер: 1.44 GB
Как cкачать? Как скачать Джам через торрент | UTorrent

28-11-2019 20:33  

Отключить всю рекламу на сайте

    Дорогой пользователь! Огромная просьба, поблагодарите релизера, оцените раздачу и оставьте свои комментарий, если Вы скачали Джам через торрент бесплатно! Внесите свою лепту в развитие PiratBit!
    Комментировать посты могут только пользователи прошедшие не сложную регистрацию
    Показать сообщения:    

    Джам через торрент
    Скачать бесплатно Джам
    Джам скачать торрент
    Джам смотреть онлайн
    Cкачать фильм Джам бесплатно
    Джам скачать торрент в хорошем качестве
    Джам смотреть онлайн бесплатно в хорошем качестве


    Вы не можете начинать темы
    Вы не можете отвечать на сообщения
    Вы не можете редактировать свои сообщения
    Вы не можете удалять свои сообщения
    Вы не можете голосовать в опросах
    Вы не можете прикреплять файлы к сообщениям
    Вы можете скачивать файлы