1 сезон

1 сезон

iTunes

1

КиноПоиск HD

Кинопоиск HD

iTunes

13

1 сезон

RePack

30

Новинка

ВАЖНО

ИГРА 18+

pack

RePack

MK11
pack

Легкие деньги

RePack

jed

RePack

fifa19

RePack

RDR2

RePack

NEED FOR SPEED™ PAYBACK

4 сезон

9 сезон

Бесстыжие 9 сезон

Все сериалы

все сериалы на PB.wtf

RePack

FAR CRY 5
  
Magnet ссылка

Клуб первых жён / The First Wives Club (Хью Уилсон) [1996 г., Мелодрама, комедия, WEB-DL 720p] 2xAVO (Юрий Живов, Сергей Визгунов), 2xMVO piratbit.pw

Клуб первых жён через торрент piratbit.pw

Размер: 4.09 GB | Добавлен: 2 года 7 мес. назад | Торрент скачан:8 раз
Скачать  

27-08-2018 21:20 Клуб первых жён Скачать торрент  

Клуб первых жён / The First Wives Club
Год выпуска: 1996

Страна: США

Жанр: Мелодрама, комедия

Продолжительность: 01:42:20

Субтитры: Русские, английские

Режиссер: Хью Уилсон

rating

Перевод 1: Авторский (одноголосый закадровый) Юрий Живов
Перевод 2: Авторский (одноголосый закадровый) Сергей Визгунов
Перевод 3: Профессиональный (многоголосый закадровый) (Tunes)
Перевод 4: Профессиональный (многоголосый закадровый)

В ролях: Бетт Мидлер, Голди Хоун, Дайан Китон, Мэгги Смит, Дэн Хедайя, Сара Джессика Паркер, Стокард Чэннинг, Виктор Гарбер, Стивен Коллинз, Элизабет Беркли, Марша Гей Харден, Бронсон Пиншо, Дженнифер Дандас, Айлин Хекарт, Филип Боско, Роб Райнер, Джеймс Нафтон, Эри Гринберг, Айда Линарес, Лиа ДеЛария, Дебра Монк, Дженнфер Лам, Кристофер Бёрдж

Описание: Три выпускницы колледжа, которые были когда - то очень дружны, встречаются спустя почти тридцать лет. Несмотря на то, что их тропинки разошлись, жизнь подруг складывалась очень похоже: все трое вроде бы удачно вышли замуж и все трое недавно разошлись с мужьями, обвиняя в случившемся юных красоток, которыми увлеклись ох почтенные супруги. Подруги по несчастью - блестящее трио в составе Голди Хоун, Бетт Мидлер и Дайан Китон - решают объединиться, чтобы взять реванш. Для мести миссис Лаш, миссис Траш и миссис Блаш выбирают самые суровые и изощренные методы.

Качество: WEB-DL 720p

Формат: MKV

Видео кодек: MPEG-4 AVC

Аудио кодек: AC3

Видео: MPEG-4 AVC, 3948 Кбит/с, 1280x720, 23.976 кадр/с
Аудио#1: Russian - 48 kHz, AC3, Front: L C R, Side: L R, LFE, 384 kbps - Юрий Живов
Аудио#2: Russian - 48 kHz, AC3, 2/0 Front: L R, 192 kbps - Сергей Визгунов
Аудио#3: Russian - 48 kHz, AC3, Front: L C R, Side: L R, LFE, 384 kbps - MVO-Tunes
Аудио#4: Russian - 48 kHz, AC3, 2/0 Front: L R, 256 kbps - MVO
Аудио#5: English - 48 kHz, AC3, Front: L C R, Side: L R, LFE, 448 kbps
Видео
Идентификатор : 1
Формат : AVC
Формат/Информация : Advanced Video Codec
Профиль формата : High@L3.1
Настройки формата : 2 Ref Frames
Параметр CABAC формата : Нет
Параметр RefFrames формата : 2 кадра
Идентификатор кодека : V_MPEG4/ISO/AVC
Продолжительность : 1 ч. 42 м.
Битрейт : 3948 Кбит/сек
Ширина : 1280 пикселей
Высота : 720 пикселей
Соотношение сторон : 16:9
Режим частоты кадров : Постоянный
Частота кадров : 23,976 кадра/сек
Цветовое пространство : YUV
Субдискретизация насыщенности : 4:2:0
Битовая глубина : 8 бит
Тип развёртки : Прогрессивная
Бит/(Пиксели*Кадры) : 0.179
Размер потока : 2,82 Гбайт (69%)
Заголовок : The First Wives Club (1996) - Release for HDCLUB
Язык : English
Default : Да
Forced : Нет
Цветовой диапазон : Limited
Основные цвета : BT.709
Характеристики трансфера : BT.709
Коэффициенты матрицы : BT.709

Аудио #1
Идентификатор : 2
Формат : AC-3
Формат/Информация : Audio Coding 3
Идентификатор кодека : A_AC3
Продолжительность : 1 ч. 42 м.
Вид битрейта : Постоянный
Битрейт : 384 Кбит/сек
Каналы : 6 каналов
Расположение каналов : Front: L C R, Side: L R, LFE
Частота : 48,0 КГц
Частота кадров : 31,250 кадров/сек (1536 SPF)
Битовая глубина : 16 бит
Метод сжатия : С потерями
Размер потока : 281 Мбайт (7%)
Заголовок : AVO Живов @ AC3 6ch. @ 384 kbps
Язык : Russian
ServiceKind/String : Complete Main
Default : Да
Forced : Нет

Аудио #2
Идентификатор : 3
Формат : AC-3
Формат/Информация : Audio Coding 3
Идентификатор кодека : A_AC3
Продолжительность : 1 ч. 42 м.
Вид битрейта : Постоянный
Битрейт : 192 Кбит/сек
Каналы : 2 канала
Расположение каналов : Front: L R
Частота : 48,0 КГц
Частота кадров : 31,250 кадров/сек (1536 SPF)
Битовая глубина : 16 бит
Метод сжатия : С потерями
Размер потока : 141 Мбайт (3%)
Заголовок : AVO Визгунов @ AC3 2ch. @ 192 kbps
Язык : Russian
ServiceKind/String : Complete Main
Default : Нет
Forced : Нет

Аудио #3
Идентификатор : 4
Формат : AC-3
Формат/Информация : Audio Coding 3
Идентификатор кодека : A_AC3
Продолжительность : 1 ч. 42 м.
Вид битрейта : Постоянный
Битрейт : 384 Кбит/сек
Каналы : 6 каналов
Расположение каналов : Front: L C R, Side: L R, LFE
Частота : 48,0 КГц
Частота кадров : 31,250 кадров/сек (1536 SPF)
Битовая глубина : 16 бит
Метод сжатия : С потерями
Размер потока : 281 Мбайт (7%)
Заголовок : MVO-Tunes Russia @ AC3 5.1 @ 384 kbps - MVO
Язык : Russian
ServiceKind/String : Complete Main
Default : Нет
Forced : Нет

Аудио #4
Идентификатор : 5
Формат : AC-3
Формат/Информация : Audio Coding 3
Идентификатор кодека : A_AC3
Продолжительность : 1 ч. 42 м.
Вид битрейта : Постоянный
Битрейт : 256 Кбит/сек
Каналы : 2 канала
Расположение каналов : Front: L R
Частота : 48,0 КГц
Частота кадров : 31,250 кадров/сек (1536 SPF)
Битовая глубина : 16 бит
Метод сжатия : С потерями
Размер потока : 187 Мбайт (4%)
Заголовок : MVO @ AC3 2ch. @ 256 kbps
Язык : Russian
ServiceKind/String : Complete Main
Default : Нет
Forced : Нет

Аудио #5
Идентификатор : 6
Формат : AC-3
Формат/Информация : Audio Coding 3
Идентификатор кодека : A_AC3
Продолжительность : 1 ч. 42 м.
Вид битрейта : Постоянный
Битрейт : 448 Кбит/сек
Каналы : 6 каналов
Расположение каналов : Front: L C R, Side: L R, LFE
Частота : 48,0 КГц
Частота кадров : 31,250 кадров/сек (1536 SPF)
Битовая глубина : 16 бит
Метод сжатия : С потерями
Размер потока : 328 Мбайт (8%)
Заголовок : Original @ AC3 6ch. @ 448 kbps
Язык : English
ServiceKind/String : Complete Main
Default : Нет
Forced : Нет

Текст #1
Идентификатор : 7
Формат : UTF-8
Идентификатор кодека : S_TEXT/UTF8
Идентификатор кодека/Информация : UTF-8 Plain Text
Заголовок : (* UTF-8)
Язык : Russian
Default : Нет
Forced : Нет

Текст #2
Идентификатор : 8
Формат : UTF-8
Идентификатор кодека : S_TEXT/UTF8
Идентификатор кодека/Информация : UTF-8 Plain Text
Заголовок : (* UTF-8)
Язык : English
Default : Нет
Forced : Нет

Меню
00:00:00.000 : en:1. Main Titles
00:02:04.000 : en:2. Cynthia
00:05:54.000 : en:3. Annie
00:07:33.000 : en:4. Elise
00:08:55.000 : en:5. Brenda
00:09:38.000 : en:6. Eastside Suicide
00:14:03.000 : en:7. A Terrible Excuse for a Reunion
00:19:45.000 : en:8. "Grow from love."
00:21:29.000 : en:9. Alimony!
00:22:41.000 : en:10. Morty and Shelly
00:24:36.000 : en:11. Monique's Mom
00:25:35.000 : en:12. Dinner Arrangements
00:29:35.000 : en:13. "I want a divorce."
00:32:56.000 : en:14. Cynthia's Letters
00:34:27.000 : en:15. The First Wives Club
00:37:27.000 : en:16. In Search of a Spy
00:40:29.000 : en:17. Downsizing
00:41:40.000 : en:18. Uncle Carmine
00:43:45.000 : en:19. Phoebe
00:45:00.000 : en:20. A Base of Operations
00:48:21.000 : en:21. Help From Gunilla
00:51:02.000 : en:22. Decorator of Death
00:53:06.000 : en:23. Raiding Morty's Files
00:56:03.000 : en:24. Window Washers
00:58:18.000 : en:25. To Cynthia, Happy Birthday..
01:00:12.000 : en:26. Classic Eternal Good Taste
01:05:13.000 : en:27. The Engagement
01:07:06.000 : en:28. The Three Witches
01:15:35.000 : en:29. Together Again
01:17:40.000 : en:30. "You are not Satan."
01:18:26.000 : en:31. Operation Hell's Fury
01:27:32.000 : en:32. "Sister's Are Doin' It For Themselves."
01:30:02.000 : en:33. The Cynthia Swann Griffin Crisis Center For Women
01:31:51.000 : en:34. "Don't get mad, get everything."
01:35:51.000 : en:35. Women of the '90's
01:36:37.000 : en:36. "You Don't Own Me."


piratbit.pw



Скачать Клуб первых жён через торрент https://pic1.kartinco.top/images/11/rkbss.jpg Скачать фильм Клуб первых жён через торрент бесплантно в хорошем качестве Описание: Три выпускницы колледжа, которые были когда - то очень дружны, встречаются спустя почти тридцать лет. Несмотря на то, что их ... 10 10 2
Торрент: Зарегистрирован [2018-08-27 21:20] · скачан: 8 раз
Статус: √ проверено
Размер: 4.09 GB
Как cкачать? Как скачать Клуб первых жён через торрент | UTorrent

28-11-2019 20:33  

Отключить всю рекламу на сайте

28-08-2018 05:38 Клуб первых жён Скачать торрент  

Топик был перенесен из форума Оформление раздач (Кино, Видео и ТВ) в форум Фильмы с авторской озвучкой


-Lexx-piratbit.pw



    Дорогой пользователь! Огромная просьба, поблагодарите релизера, оцените раздачу и оставьте свои комментарий, если Вы скачали Клуб первых жён через торрент бесплатно! Внесите свою лепту в развитие PiratBit!
    Комментировать посты могут только пользователи прошедшие не сложную регистрацию
    Показать сообщения:    

    Клуб первых жён через торрент
    Скачать бесплатно Клуб первых жён
    Клуб первых жён скачать торрент
    Клуб первых жён смотреть онлайн
    Cкачать фильм Клуб первых жён бесплатно
    Клуб первых жён скачать торрент в хорошем качестве
    Клуб первых жён смотреть онлайн бесплатно в хорошем качестве


    Вы не можете начинать темы
    Вы не можете отвечать на сообщения
    Вы не можете редактировать свои сообщения
    Вы не можете удалять свои сообщения
    Вы не можете голосовать в опросах
    Вы не можете прикреплять файлы к сообщениям
    Вы можете скачивать файлы