1 сезон

1 сезон

iTunes

1

КиноПоиск HD

Кинопоиск HD

iTunes

13

1 сезон

RePack

30

Ultimate

ВАЖНО

ИГРА 18+

pack

RePack

MK11
pack

Легкие деньги

RePack

jed

RePack

fifa19

RePack

RDR2

RePack

NEED FOR SPEED™ PAYBACK

4 сезон

9 сезон

Бесстыжие 9 сезон

Все сериалы

все сериалы на PB.wtf

RePack

FAR CRY 5
  
Magnet ссылка

Каннибалы / Cannibal ferox (Умберто Ленци) [1981 г., ужасы, приключения, HDRip] AVO [Сергей Визгунов] piratbit.pw

Каннибалы через торрент piratbit.pw

Размер: 1.45 GB | Добавлен: 2 года 7 мес. назад | Торрент скачан:36 раз
Скачать  

26-08-2018 08:26 Каннибалы Скачать торрент  

Каннибалы / Cannibal ferox
Год выпуска: 1981

Страна: Италия

Жанр: Ужасы, приключения

Продолжительность: 01:33:21

Перевод: Авторский (одноголосый) Сергей Визгунов

Субтитры: Нет

Режиссер: Умберто Ленци

rating

В ролях: Джованни Ломбардо Радице, Лоррейн Де Селле, Данило Маттеи, Зора Керова, Уолтер Луккини, Фьямма Мальоне, Роберт Керман, Джон Барта, Венантино Венантини, «Эль Индио» Ринкон

Описание: Ученая-этнограф, ее брат и подруга отправляются в джунгли Южной Америки, чтобы отыскать дикие племена и опровергнуть гипотезу о царящем в их среде каннибализме. В девственных лесах они встречают пару авантюристов, которых преследуют аборигены. Парни были жестоки с дикарями, и теперь племя желает полакомится теми, кто имеет белую кожу...

Интересные факты о фильме:
* Все пять сцен с животными, были сняты по-настоящему.
* Умберто Ленци собирались посадить в тюрьму за эту картину, так как судья, разбиравший дело, не мог поверить, что все сцены насилия над людьми были результатом применения спецэффектов.
* Картина была запрещена в 31 стране мира, что нашло свое отражение в Книге рекордов Гиннесса.

Качество: HDRip
Формат: AVI
Видео кодек: XviD
Аудио кодек: AC3
Видео: XviD, 1826 Kбит/с, 720x400, 23.976 кадр/с
Аудио#1: Русский, AC3, 2 ch, 192 Кбит/с
Аудио#2: Английский, AC3, 2 ch, 192 Кбит/с
Видео
Идентификатор : 0
Формат : MPEG-4 Visual
Профиль формата : Advanced Simple@L5
Настройки формата : BVOP1 / Custom Matrix
Параметр BVOP формата : 1
Параметр QPel формата : Нет
Параметр GMC формата : Без точки перехода
Параметр матрицы формата : Выборочная
Идентификатор кодека : XVID
Идентификатор кодека/Подсказка : XviD
Продолжительность : 1 ч. 33 м.
Битрейт : 1826 Кбит/сек
Ширина : 720 пикселей
Высота : 400 пикселей
Соотношение сторон : 16:9
Частота кадров : 23,976 (24000/1001) кадра/сек
Цветовое пространство : YUV
Субдискретизация насыщенности : 4:2:0
Битовая глубина : 8 бит
Тип развёртки : Прогрессивная
Метод сжатия : С потерями
Бит/(Пиксели*Кадры) : 0.264
Размер потока : 1,19 Гбайт (82%)
Библиотека кодирования : XviD 65

Аудио #1
Идентификатор : 1
Формат : AC-3
Формат/Информация : Audio Coding 3
Идентификатор кодека : 2000
Продолжительность : 1 ч. 33 м.
Вид битрейта : Постоянный
Битрейт : 192 Кбит/сек
Каналы : 2 канала
Расположение каналов : Front: L R
Частота : 48,0 КГц
Частота кадров : 31,250 кадров/сек (1536 SPF)
Битовая глубина : 16 бит
Метод сжатия : С потерями
Размер потока : 128 Мбайт (9%)
Выравнивание : Разделение по промежуткам
Продолжительность промежутка : 42 мс. (1,00 видеокадр)
Время предзагрузки промежутка : 500 мс.
ServiceKind/String : Complete Main

Аудио #2
Идентификатор : 2
Формат : AC-3
Формат/Информация : Audio Coding 3
Идентификатор кодека : 2000
Продолжительность : 1 ч. 33 м.
Вид битрейта : Постоянный
Битрейт : 192 Кбит/сек
Каналы : 2 канала
Расположение каналов : Front: L R
Частота : 48,0 КГц
Частота кадров : 31,250 кадров/сек (1536 SPF)
Битовая глубина : 16 бит
Метод сжатия : С потерями
Размер потока : 128 Мбайт (9%)
Выравнивание : Разделение по промежуткам
Продолжительность промежутка : 42 мс. (1,00 видеокадр)
Время предзагрузки промежутка : 500 мс.


piratbit.pw



Скачать Каннибалы через торрент https://pic1.kartinco.top/images/11/43r5d.jpg Скачать фильм Каннибалы через торрент бесплантно в хорошем качестве Описание: Ученая-этнограф, ее брат и подруга отправляются в джунгли Южной Америки, чтобы отыскать дикие племена и опровергнуть гипотезу о ... 10 10 2
Торрент: Зарегистрирован [2018-08-26 08:26] · скачан: 36 раз
Статус: √ проверено
Размер: 1.45 GB
Как cкачать? Как скачать Каннибалы через торрент | UTorrent

28-11-2019 20:33  

Отключить всю рекламу на сайте

26-08-2018 08:33 Каннибалы Скачать торрент  

Топик был перенесен из форума Оформление раздач (Кино, Видео и ТВ) в форум Фильмы с авторской озвучкой


Скорпион1976piratbit.pw



26-08-2018 08:34 Каннибалы Скачать торрент  

Спасибо,если не ошибаюсь то смотрел этот фильм,фильм отличныйpiratbit.pw



26-08-2018 08:38 Каннибалы Скачать торрент  

Скорпион1976 писал(а):

Спасибо,если не ошибаюсь то смотрел этот фильм,фильм отличный

первый раз смотрел его ещё в далёком 1985-м,ночью на Электроника-ВМ12.очень страшно былоpiratbit.pw



    Дорогой пользователь! Огромная просьба, поблагодарите релизера, оцените раздачу и оставьте свои комментарий, если Вы скачали Каннибалы через торрент бесплатно! Внесите свою лепту в развитие PiratBit!
    Комментировать посты могут только пользователи прошедшие не сложную регистрацию
    Показать сообщения:    

    Каннибалы через торрент
    Скачать бесплатно Каннибалы
    Каннибалы скачать торрент
    Каннибалы смотреть онлайн
    Cкачать фильм Каннибалы бесплатно
    Каннибалы скачать торрент в хорошем качестве
    Каннибалы смотреть онлайн бесплатно в хорошем качестве


    Вы не можете начинать темы
    Вы не можете отвечать на сообщения
    Вы не можете редактировать свои сообщения
    Вы не можете удалять свои сообщения
    Вы не можете голосовать в опросах
    Вы не можете прикреплять файлы к сообщениям
    Вы можете скачивать файлы