1 сезон

1 сезон

iTunes

1

КиноПоиск HD

Кинопоиск HD

iTunes

13

1 сезон

RePack

30

Новинка

ВАЖНО

ИГРА 18+

pack

RePack

MK11
pack

Легкие деньги

RePack

jed

RePack

fifa19

RePack

RDR2

RePack

NEED FOR SPEED™ PAYBACK

4 сезон

9 сезон

Бесстыжие 9 сезон

Все сериалы

все сериалы на PB.wtf

RePack

FAR CRY 5
  
Magnet ссылка

Маньяк-полицейский / Maniac Cop (Уильям Лустиг) [1988, ужасы, боевик, криминал, детектив, BDRip 720p by msltel] 2 x AVO, VO piratbit.pw

Маньяк-полицейский через торрент piratbit.pw

Размер: 5.46 GB | Добавлен: 2 года 8 мес. назад | Торрент скачан:2 раза
Скачать  

21-08-2018 10:48 Маньяк-полицейский Скачать торрент  

Название: Маньяк-полицейский
Оригинальное название: Maniac Cop
Год выпуска: 1988
Страна: США
Жанр: ужасы, боевик, криминал, детектив
Продолжительность: 01:25:00
Перевод: авторский, закадровый одноголосый

Режиссер: Уильям Лустиг
В ролях: Том Эткинс, Брюс Кэмпбелл, Лаурен Лэндон, Ричард Раундтри, Уильям Смит, Роберт З'Дар, Шири Норт, Нина Арвесен, Ник Барбаро, Лу Бонаки

О фильме: Нью-Йорк в ужасе! В городе серия жестоких убийств. Все свидетели утверждают, что их совершил некто в форме полицейского. Управление полиции поначалу не верит в это, и только лейтенант Френк МакКрей понимает, о ком идёт речь...



Качество: BDRip 720p
Формат: MKV
Видео: MPEG-4 AVC, 7919 Kбит/с, 1280x694
Аудио 1: русский, AC3, 192 kbps, 2 ch, 48 kHz [авторский, Леонид Володарский]
Аудио 2: русский, AC3, 448 kbps, 6 ch, 48 kHz [авторский, Алексей Михалёв]
Аудио 3: русский, AC3, 192 kbps, 2 ch, 48 kHz [закадровый одноголосый, Лёша Прапорщик]
Аудио 4: английский, AC3, 448 kbps, 6 ch, 48 kHz [оригинал]
Субтитры: английские
Главы/чаптеры
Общее
Уникальный идентификатор : 191258556061016330673399077627292208225 (0x8FE30EDAA61F1282A71DA17D34B2CC61)
Полное имя : D:\Video\Маньяк-полицейский.1988.BDRip.720p by msltel.mkv
Формат : Matroska
Версия формата : Version 4 / Version 2
Размер файла : 5,46 Гбайт
Продолжительность : 1 ч. 25 м.
Общий поток : 9189 Кбит/сек
Название фильма : Rip by msltel
Дата кодирования : UTC 2018-08-21 05:14:31
Программа кодирования : mkvmerge v8.2.0 ('World of Adventure') 64bit
Библиотека кодирования : libebml v1.3.1 + libmatroska v1.4.2

Видео
Идентификатор : 1
Формат : AVC
Формат/Информация : Advanced Video Codec
Профиль формата : High@L4.1
Настройки формата : CABAC / 9 Ref Frames
Параметр CABAC формата : Да
Параметр RefFrames формата : 9 кадров
Идентификатор кодека : V_MPEG4/ISO/AVC
Продолжительность : 1 ч. 25 м.
Битрейт : 7919 Кбит/сек
Ширина : 1280 пикселей
Высота : 694 пикселя
Соотношение сторон : 1,85:1
Режим частоты кадров : Постоянный
Частота кадров : 23,976 (24000/1001) кадра/сек
Цветовое пространство : YUV
Субдискретизация насыщенности : 4:2:0
Битовая глубина : 8 бит
Тип развёртки : Прогрессивная
Бит/(Пиксели*Кадры) : 0.372
Размер потока : 4,70 Гбайт (86%)
Библиотека кодирования : x264 core 155 r2901 7d0ff22
Настройки программы : cabac=1 / ref=9 / deblock=1:-3:-2 / analyse=0x3:0x113 / me=umh / subme=11 / psy=1 / psy_rd=1.00:0.15 / mixed_ref=1 / me_range=32 / chroma_me=1 / trellis=2 / 8x8dct=1 / cqm=0 / deadzone=21,11 / fast_pskip=0 / chroma_qp_offset=-3 / threads=6 / lookahead_threads=1 / sliced_threads=0 / nr=0 / decimate=1 / interlaced=0 / bluray_compat=0 / constrained_intra=0 / bframes=16 / b_pyramid=2 / b_adapt=2 / b_bias=0 / direct=1 / weightb=1 / open_gop=0 / weightp=2 / keyint=230 / keyint_min=23 / scenecut=40 / intra_refresh=0 / rc_lookahead=40 / rc=crf / mbtree=1 / crf=18.3 / qcomp=0.60 / qpmin=0 / qpmax=69 / qpstep=4 / vbv_maxrate=62500 / vbv_bufsize=78125 / crf_max=0.0 / nal_hrd=none / filler=0 / ip_ratio=1.40 / aq=1:1.00
Язык : English
Default : Да
Forced : Нет

Аудио #1
Идентификатор : 2
Формат : AC-3
Формат/Информация : Audio Coding 3
Идентификатор кодека : A_AC3
Продолжительность : 1 ч. 25 м.
Вид битрейта : Постоянный
Битрейт : 192 Кбит/сек
Каналы : 2 канала
Расположение каналов : Front: L R
Частота : 48,0 КГц
Частота кадров : 31,250 кадров/сек (1536 SPF)
Битовая глубина : 16 бит
Метод сжатия : С потерями
Размер потока : 117 Мбайт (2%)
Заголовок : Леонид Володарский
Язык : Russian
ServiceKind/String : Complete Main
Default : Да
Forced : Нет

Аудио #2
Идентификатор : 3
Формат : AC-3
Формат/Информация : Audio Coding 3
Идентификатор кодека : A_AC3
Продолжительность : 1 ч. 25 м.
Вид битрейта : Постоянный
Битрейт : 448 Кбит/сек
Каналы : 6 каналов
Расположение каналов : Front: L C R, Side: L R, LFE
Частота : 48,0 КГц
Частота кадров : 31,250 кадров/сек (1536 SPF)
Битовая глубина : 16 бит
Метод сжатия : С потерями
Размер потока : 273 Мбайт (5%)
Заголовок : Алексей Михалёв
Язык : Russian
ServiceKind/String : Complete Main
Default : Нет
Forced : Нет

Аудио #3
Идентификатор : 4
Формат : AC-3
Формат/Информация : Audio Coding 3
Идентификатор кодека : A_AC3
Продолжительность : 1 ч. 25 м.
Вид битрейта : Постоянный
Битрейт : 192 Кбит/сек
Каналы : 2 канала
Расположение каналов : Front: L R
Частота : 48,0 КГц
Частота кадров : 31,250 кадров/сек (1536 SPF)
Битовая глубина : 16 бит
Метод сжатия : С потерями
Размер потока : 117 Мбайт (2%)
Заголовок : Леша Прапорщик
Язык : Russian
ServiceKind/String : Complete Main
Default : Нет
Forced : Нет

Аудио #4
Идентификатор : 5
Формат : AC-3
Формат/Информация : Audio Coding 3
Идентификатор кодека : A_AC3
Продолжительность : 1 ч. 25 м.
Вид битрейта : Постоянный
Битрейт : 448 Кбит/сек
Каналы : 6 каналов
Расположение каналов : Front: L C R, Side: L R, LFE
Частота : 48,0 КГц
Частота кадров : 31,250 кадров/сек (1536 SPF)
Битовая глубина : 16 бит
Метод сжатия : С потерями
Размер потока : 273 Мбайт (5%)
Заголовок : origibal
Язык : English
ServiceKind/String : Complete Main
Default : Нет
Forced : Нет

Текст
Идентификатор : 6
Формат : UTF-8
Идентификатор кодека : S_TEXT/UTF8
Идентификатор кодека/Информация : UTF-8 Plain Text
Продолжительность : 1 ч. 19 м.
Битрейт : 49 бит/сек
ElementCount : 777
Размер потока : 28,9 Кбайт (0%)
Заголовок : английские
Язык : English
Default : Нет
Forced : Нет

Меню
00:00:00.000 : :Chapter 1
00:03:43.556 : :Chapter 2
00:08:55.033 : :Chapter 3
00:17:19.579 : :Chapter 4
00:19:30.126 : :Chapter 5
00:24:22.670 : :Chapter 6
00:29:41.445 : :Chapter 7
00:34:38.034 : :Chapter 8
00:39:44.882 : :Chapter 9
00:47:51.994 : :Chapter 10
00:49:43.771 : :Chapter 11
00:53:53.605 : :Chapter 12
00:59:40.117 : :Chapter 13
01:05:42.438 : :Chapter 14
01:09:36.421 : :Chapter 15
01:13:34.368 : :Chapter 16
01:17:28.100 : :Chapter 17
01:21:54.076 : :Chapter 18
piratbit.pw



Скачать Маньяк-полицейский через торрент https://d.radikal.ru/d25/1808/5e/5343225430dd.png Скачать фильм Маньяк-полицейский через торрент бесплантно в хорошем качестве О фильме: Нью-Йорк в ужасе! В городе серия жестоких убийств. Все свидетели утверждают, что их совершил некто в форме полицейского. ... 10 10 3
Info! Золотая раздача, скачанное не засчитывается.
Торрент: Зарегистрирован [2018-08-21 10:48] · скачан: 2 раз
Статус: √ проверено
Размер: 5.46 GB
Как cкачать? Как скачать Маньяк-полицейский через торрент | UTorrent

% Раздел Тема Автор DL S | L
Фильмы с авторской озвучкой [ 14.89 GB ] Маньяк-полицейский / Maniac Cop [1988 BDRip 1080p by msltel] 2 x AVO VO msltel Скачать
1 | 0

28-11-2019 20:33  

Отключить всю рекламу на сайте

    Дорогой пользователь! Огромная просьба, поблагодарите релизера, оцените раздачу и оставьте свои комментарий, если Вы скачали Маньяк-полицейский через торрент бесплатно! Внесите свою лепту в развитие PiratBit!
    Комментировать посты могут только пользователи прошедшие не сложную регистрацию
    Показать сообщения:    

    Маньяк-полицейский через торрент
    Скачать бесплатно Маньяк-полицейский
    Маньяк-полицейский скачать торрент
    Маньяк-полицейский смотреть онлайн
    Cкачать фильм Маньяк-полицейский бесплатно
    Маньяк-полицейский скачать торрент в хорошем качестве
    Маньяк-полицейский смотреть онлайн бесплатно в хорошем качестве


    Вы не можете начинать темы
    Вы не можете отвечать на сообщения
    Вы не можете редактировать свои сообщения
    Вы не можете удалять свои сообщения
    Вы не можете голосовать в опросах
    Вы не можете прикреплять файлы к сообщениям
    Вы можете скачивать файлы