Ссылка на приватное зеркало нашего сайта всего за 1$. Внимание количество ограничено!!!

2 сезон

iTunes

iTunes

1

iTunes

iTunes

iTunes

WEBRip

iTunes

30
pack

Вам бонус

ВАЖНО

!!Акция!!

Alien_RageХит недели

RePack

Horizon Zero Dawn

ИГРА 18+

pack

RePack

jed

!!Акция!!

Alien_Rage

RePack

fifa19

RePack

Assassins Creed: Odyssey

RePack

NEED FOR SPEED™ PAYBACK

4 сезон

9 сезон

Бесстыжие 9 сезон

Все сериалы

все сериалы на PB.wtf

RePack

FAR CRY 5
  

Смерть Супермена / The Death of Superman (Jake Castorena, Сэм Лью) [2018, мультфильм, фантастика, боевик, UHD BDRip 2160p] 3xMVO + DVO piratbit.pw

Смерть Супермена через торрент piratbit.pw

Размер: 7.11 GB | Добавлен: 2 года 1 мес. назад | Торрент скачан:49 раз
Скачать  

19-08-2018 13:45 Смерть Супермена Скачать торрент  

Смерть Супермена / The Death of Superman

Год выпуска: 2018
Страна: США
Жанр: мультфильм, фантастика, боевик
Продолжительность: 01:17:58
Перевод: Профессиональный многоголосый, любительский многоголосый, любительский двухголосый
Субтитры: Русские, английские, испанские, французские
Режиссер: Jake Castorena , Сэм Лью
В ролях:

Джерри О’Коннелл (Superman / Clark Kent, озвучка), Ребекка Ромейн (Lois Lane, озвучка), Рэйн Уилсон (Lex Luthor, озвучка), Розарио Доусон (Wonder Woman, озвучка), Нэйтан Филлион (Green Lantern, озвучка), Кристофер Горам (The Flash, озвучка), Мэтт Лантер (Aquaman, озвучка), Шемар Мур (Cyborg, озвучка), Ньямби Ньямби (Martian Manhunter, озвучка), Джейсон О’Мара (Batman, озвучка), Джонатан Адамс (Mayor, озвучка), Роки Кэрролл (Silas Stone, озвучка)
Описание:
Кларк Кент подумывает о том, чтобы раскрыть возлюбленной Лоис Лэйн свой самый большой секрет - что он является Суперменом. В это же время на Землю прибывает страшное чудовище Думсдэй, обладающее невероятной силой и злобой. Все супергерои в составе Лиги справедливости с трудом сдерживают монстра, поэтому Супермену придётся отложить свои личные дела и постараться помочь товарищам победить врага.
Рейтинг:

MPAA: PG-13 - Детям до 13 лет просмотр не желателен
Качество: UHD BDRip 2160p
Формат: MKV
Видео: HEVC, 12.6 Mбит/с, 3840x2160, 23.976 Кадр/с
Аудио #1: Русский:DTS-HD Master Audio / 5.1 / 48 kHz / 2114 kbps / 16-bit (DTS Core: 5.1 / 48 kHz / 1509 kbps / 16-bit)| (Любительский (двухголосый закадровый) ZM-Show)
Аудио #2: Русский: DTS-HD Master Audio / 5.1 / 48 kHz / 2118 kbps / 16-bit (DTS Core: 5.1 / 48 kHz / 1509 kbps / 16-bit)| (Любительский (многоголосый закадровый) Saint Sound)
Аудио #3: Русский: AC3, 2/0 (L,R) ch, 192 kbps, Delay 0 mSec,| (Профессиональный (многоголосый закадровый) HDRezka Studio)
Аудио #4: Русский: AC3, 2/0 (L,R) ch, 192 kbps, Delay 0 mSec| (Любительский (многоголосый закадровый) Flarrow Films)
Аудио #5: Английский: DTS-HD Master Audio / 5.1 / 48 kHz / 2318 kbps / 24-bit (DTS Core: 5.1 / 48 kHz / 1509 kbps / 24-bit)|Original
Навигация по главам: есть
Complete name : E:\Movies\The.Death.of.Superman.2018.2160p.UHD.BluRay.x265-SpaceHD13.mkv
Format : Matroska
Format version : Version 4 / Version 2
File size : 7.11 GiB
Duration : 1 h 20 min
Overall bit rate : 12.6 Mb/s
Movie name : The.Death.of.Superman.2018.2160p.UHD.BluRay.x265-SpaceHD13
Encoded date : UTC 2018-08-13 11:02:49
Writing application : mkvmerge v25.0.0 ('Prog Noir') 64-bit
Writing library : libebml v1.3.6 + libmatroska v1.4.9

Video
ID : 1
Format : HEVC
Format/Info : High Efficiency Video Coding
Commercial name : HDR10
Format profile : Main 10@L5.1@High
Codec ID : V_MPEGH/ISO/HEVC
Duration : 1 h 20 min
Bit rate : 5 596 kb/s
Width : 3 840 pixels
Height : 2 160 pixels
Display aspect ratio : 16:9
Frame rate mode : Constant
Frame rate : 23.976 (24000/1001) FPS
Color space : YUV
Chroma subsampling : 4:2:0 (Type 2)
Bit depth : 10 bits
Bits/(Pixel*Frame) : 0.028
Stream size : 3.16 GiB (44%)
Title : The.Death.of.Superman.2018.2160p.UHD.BluRay.x265-SpaceHD13
Writing library : x265 2.8+10-703eade86b53:[Windows][MSVC 1914][64 bit] 10bit
Encoding settings : cpuid=1111039 / frame-threads=6 / numa-pools=36 / wpp / no-pmode / no-pme / no-psnr / no-ssim / log-level=2 / input-csp=1 / input-res=3840x2160 / interlace=0 / total-frames=116420 / level-idc=51 / high-tier=1 / uhd-bd=1 / ref=4 / no-allow-non-conformance / repeat-headers / annexb / aud / hrd / info / hash=0 / no-temporal-layers / no-open-gop / min-keyint=1 / keyint=24 / gop-lookahead=0 / bframes=4 / b-adapt=2 / b-pyramid / bframe-bias=0 / rc-lookahead=25 / lookahead-slices=4 / scenecut=40 / radl=0 / no-intra-refresh / ctu=64 / min-cu-size=8 / rect / no-amp / max-tu-size=32 / tu-inter-depth=1 / tu-intra-depth=1 / limit-tu=0 / rdoq-level=2 / dynamic-rd=0.00 / no-ssim-rd / signhide / no-tskip / nr-intra=0 / nr-inter=0 / no-constrained-intra / no-strong-intra-smoothing / max-merge=3 / limit-refs=3 / limit-modes / me=3 / subme=3 / merange=57 / temporal-mvp / weightp / no-weightb / no-analyze-src-pics / deblock=-3:-3 / no-sao / no-sao-non-deblock / rd=4 / no-early-skip / rskip / no-fast-intra / no-tskip-fast / no-cu-lossless / no-b-intra / no-splitrd-skip / rdpenalty=0 / psy-rd=2.00 / psy-rdoq=1.00 / no-rd-refine / no-lossless / cbqpoffs=0 / crqpoffs=0 / rc=crf / crf=17.0 / qcomp=0.60 / qpstep=4 / stats-write=0 / stats-read=0 / vbv-maxrate=160000 / vbv-bufsize=160000 / vbv-init=0.9 / crf-max=0.0 / crf-min=0.0 / ipratio=1.40 / pbratio=1.30 / aq-mode=1 / aq-strength=1.00 / cutree / zone-count=0 / no-strict-cbr / qg-size=32 / no-rc-grain / qpmax=69 / qpmin=0 / no-const-vbv / sar=1 / overscan=0 / videoformat=5 / range=0 / colorprim=9 / transfer=16 / colormatrix=9 / chromaloc=1 / chromaloc-top=2 / chromaloc-bottom=2 / display-window=0 / master-display=G(13250,34500)B(7500,3000)R(34000,16000)WP(15635,16450)L(40000000,50) / max-cll=901,402 / min-luma=0 / max-luma=1023 / log2-max-poc-lsb=8 / vui-timing-info / vui-hrd-info / slices=1 / no-opt-qp-pps / no-opt-ref-list-length-pps / no-multi-pass-opt-rps / scenecut-bias=0.05 / no-opt-cu-delta-qp / no-aq-motion / hdr / hdr-opt / no-dhdr10-opt / no-idr-recovery-sei / analysis-reuse-level=5 / scale-factor=0 / refine-intra=0 / refine-inter=0 / refine-mv=0 / no-limit-sao / ctu-info=0 / no-lowpass-dct / refine-mv-type=0 / copy-pic=1 / max-ausize-factor=1.0 / no-dynamic-refine / no-single-sei
Default : Yes
Forced : No
Color range : Limited
Color primaries : BT.2020
Transfer characteristics : PQ
Matrix coefficients : BT.2020 non-constant
Mastering display color pri : Display P3
Mastering display luminance : min: 0.0050 cd/m2, max: 4000 cd/m2
Maximum Content Light Level : 901 cd/m2
Maximum Frame-Average Light : 402 cd/m2

Audio #1
ID : 2
Format : DTS
Format/Info : Digital Theater Systems
Format profile : MA / Core
Codec ID : A_DTS
Duration : 1 h 20 min
Bit rate mode : Variable / Constant
Bit rate : 2 114 kb/s / 1 509 kb/s
Channel(s) : 6 channels
Channel positions : Front: L C R, Side: L R, LFE
Sampling rate : 48.0 kHz
Frame rate : 93.750 FPS (512 SPF)
Bit depth : 16 bits
Compression mode : Lossless / Lossy
Stream size : 1.19 GiB (17%)
Title : The.Death.of.Superman.2018.2160p.UHD.BluRay.x265-SpaceHD13[ZM-Show]
Language : Russian
Default : No
Forced : No

Audio #2
ID : 3
Format : DTS
Format/Info : Digital Theater Systems
Format profile : MA / Core
Codec ID : A_DTS
Duration : 1 h 20 min
Bit rate mode : Variable / Constant
Bit rate : 2 118 kb/s / 1 509 kb/s
Channel(s) : 6 channels
Channel positions : Front: L C R, Side: L R, LFE
Sampling rate : 48.0 kHz
Frame rate : 93.750 FPS (512 SPF)
Bit depth : 16 bits
Compression mode : Lossless / Lossy
Stream size : 1.20 GiB (17%)
Title : The.Death.of.Superman.2018.2160p.UHD.BluRay.x265-SpaceHD13[Saint-Sound TV]
Language : Russian
Default : No
Forced : No

Audio #3
ID : 4
Format : AC-3
Format/Info : Audio Coding 3
Codec ID : A_AC3
Duration : 1 h 20 min
Bit rate mode : Constant
Bit rate : 192 kb/s
Channel(s) : 2 channels
Channel positions : Front: L R
Sampling rate : 48.0 kHz
Frame rate : 31.250 FPS (1536 SPF)
Bit depth : 16 bits
Compression mode : Lossy
Stream size : 111 MiB (2%)
Title : The.Death.of.Superman.2018.2160p.UHD.BluRay.x265-SpaceHD13[HDRezka Studio]
Language : Russian
Service kind : Complete Main
Default : No
Forced : No

Audio #4
ID : 5
Format : AC-3
Format/Info : Audio Coding 3
Codec ID : A_AC3
Duration : 1 h 20 min
Bit rate mode : Constant
Bit rate : 192 kb/s
Channel(s) : 2 channels
Channel positions : Front: L R
Sampling rate : 48.0 kHz
Frame rate : 31.250 FPS (1536 SPF)
Bit depth : 16 bits
Compression mode : Lossy
Stream size : 111 MiB (2%)
Title : The.Death.of.Superman.2018.2160p.UHD.BluRay.x265-SpaceHD13[Flarrow Films]
Language : Russian
Service kind : Complete Main
Default : No
Forced : No

Audio #5
ID : 6
Format : DTS
Format/Info : Digital Theater Systems
Format profile : MA / Core
Codec ID : A_DTS
Duration : 1 h 20 min
Bit rate mode : Variable / Constant
Bit rate : 2 318 kb/s / 1 509 kb/s
Channel(s) : 6 channels
Channel positions : Front: L C R, Side: L R, LFE
Sampling rate : 48.0 kHz
Frame rate : 93.750 FPS (512 SPF)
Bit depth : 24 bits
Compression mode : Lossless / Lossy
Stream size : 1.31 GiB (18%)
Title : The.Death.of.Superman.2018.2160p.UHD.BluRay.x265-SpaceHD13
Language : English
Default : Yes
Forced : No

Text #1
ID : 7
Format : UTF-8
Codec ID : S_TEXT/UTF8
Codec ID/Info : UTF-8 Plain Text
Duration : 1 h 16 min
Bit rate : 98 b/s
Count of elements : 784
Stream size : 54.9 KiB (0%)
Language : Russian
Default : Yes
Forced : No

Text #2
ID : 8
Format : PGS
Muxing mode : zlib
Codec ID : S_HDMV/PGS
Codec ID/Info : Picture based subtitle format used on BDs/HD-DVDs
Duration : 1 h 16 min
Bit rate : 53.3 kb/s
Count of elements : 1598
Stream size : 29.2 MiB (0%)
Language : Russian
Default : No
Forced : No

Text #3
ID : 9
Format : PGS
Muxing mode : zlib
Codec ID : S_HDMV/PGS
Codec ID/Info : Picture based subtitle format used on BDs/HD-DVDs
Duration : 1 h 19 min
Bit rate : 33.0 kb/s
Count of elements : 1978
Stream size : 18.9 MiB (0%)
Language : English
Default : No
Forced : No

Text #4
ID : 10
Format : PGS
Muxing mode : zlib
Codec ID : S_HDMV/PGS
Codec ID/Info : Picture based subtitle format used on BDs/HD-DVDs
Duration : 1 h 19 min
Bit rate : 26.0 kb/s
Count of elements : 1608
Stream size : 14.9 MiB (0%)
Language : French
Default : No
Forced : No

Text #5
ID : 11
Format : PGS
Muxing mode : zlib
Codec ID : S_HDMV/PGS
Codec ID/Info : Picture based subtitle format used on BDs/HD-DVDs
Duration : 1 h 13 min
Bit rate : 188 b/s
Count of elements : 14
Stream size : 102 KiB (0%)
Language : French
Default : No
Forced : No

Text #6
ID : 12
Format : PGS
Muxing mode : zlib
Codec ID : S_HDMV/PGS
Codec ID/Info : Picture based subtitle format used on BDs/HD-DVDs
Duration : 1 h 19 min
Bit rate : 28.5 kb/s
Count of elements : 1618
Stream size : 16.3 MiB (0%)
Language : Spanish
Default : No
Forced : No

Text #7
ID : 13
Format : PGS
Muxing mode : zlib
Codec ID : S_HDMV/PGS
Codec ID/Info : Picture based subtitle format used on BDs/HD-DVDs
Duration : 1 h 13 min
Bit rate : 179 b/s
Count of elements : 14
Stream size : 97.1 KiB (0%)
Language : Spanish
Default : No
Forced : No

Menu
00:00:00.000 : en:00:00:00.000
00:09:32.071 : en:00:09:32.071
00:20:02.410 : en:00:20:02.410
00:32:29.489 : en:00:32:29.489
00:40:17.707 : en:00:40:17.707
00:51:40.055 : en:00:51:40.055
01:03:31.307 : en:01:03:31.307
01:10:59.797 : en:01:10:59.797
01:17:04.161 : en:01:17:04.161
piratbit.pw



Скачать Смерть Супермена через торрент https://c.radikal.ru/c19/1808/2d/ceb708036ca8.jpg Скачать фильм Смерть Супермена через торрент бесплантно в хорошем качестве Описание: Кларк Кент подумывает о том, чтобы раскрыть возлюбленной Лоис Лэйн свой самый большой секрет - что он является Суперменом. В это ... 10 10 1
Info! Золотая раздача, скачанное не засчитывается.
Торрент: Зарегистрирован [2018-08-19 13:45] · скачан: 49 раз
Статус: √ проверено
Размер: 7.11 GB
Как cкачать? Как скачать Смерть Супермена через торрент | qTorrent

% Раздел Тема Автор DL S | L
Ultra HD (UHD: 2K, 4K, 8K) [ 44.77 GB ] Смерть Супермена / The Death of Superman [2018 мультфильм UHD BDRemux 2160p] 3xMVO + DVO sheker187 Скачать
1 | 0

28-11-2019 20:33  

Отключить всю рекламу на сайте

    Дорогой пользователь! Огромная просьба, поблагодарите релизера, оцените раздачу и оставьте свои комментарий, если Вы скачали Смерть Супермена через торрент бесплатно! Внесите свою лепту в развитие PiratBit!
    Комментировать посты могут только пользователи прошедшие не сложную регистрацию
    Показать сообщения:    

    Смерть Супермена через торрент
    Скачать бесплатно Смерть Супермена
    Смерть Супермена скачать торрент
    Смерть Супермена смотреть онлайн
    Cкачать фильм Смерть Супермена бесплатно
    Смерть Супермена скачать торрент в хорошем качестве
    Смерть Супермена смотреть онлайн бесплатно в хорошем качестве


    Вы не можете начинать темы
    Вы не можете отвечать на сообщения
    Вы не можете редактировать свои сообщения
    Вы не можете удалять свои сообщения
    Вы не можете голосовать в опросах
    Вы не можете прикреплять файлы к сообщениям
    Вы можете скачивать файлы