1 сезон

1 сезон

iTunes

1

КиноПоиск HD

Кинопоиск HD

iTunes

13

1 сезон

RePack

30

Ultimate

ВАЖНО

ИГРА 18+

pack

RePack

MK11
pack

Легкие деньги

RePack

jed

RePack

fifa19

RePack

RDR2

RePack

NEED FOR SPEED™ PAYBACK

4 сезон

9 сезон

Бесстыжие 9 сезон

Все сериалы

все сериалы на PB.wtf

RePack

FAR CRY 5
  
Magnet ссылка

Питомцы / Pets (Рафаэль Нуссбаум) [1973, драма, BDRip 1080p by msltel] AVO piratbit.pw

Питомцы через торрент piratbit.pw

Размер: 11.89 GB | Добавлен: 2 года 8 мес. назад | Торрент скачан:2 раза
Скачать  

19-08-2018 11:49 Питомцы Скачать торрент  

Название: Питомцы
Оригинальное название: Pets
Год выпуска: 1973
Страна: США
Жанр: драма
Продолжительность: 0:41:58
Перевод: авторский

Режиссер: Рафаэль Нуссбаум
В ролях: Эд Бишоп, Джоан Блэкман, Кэндис Райалсон, Тери Гузман, Бретт Паркер, Мэтт Грин, Майк Картель, Кейти Стивенс, Роберто Контрерас, Берри Крёгер

О фильме: Красотка Бонни — девчонка, гуляющая сама по себе. Сбежавшая из дома, она с головой погружается во взрослую жизнь. Случайные знакомства с мужчинами, желающими её тело… невольное участие в криминальной афере… лесбийские связи с богатой вдовой… невольное свидетельство убийства. А заканчивается всё тем, что за пределами человеческого воображения.



Качество: BDRip 1080p
Формат: MKV
Видео: MPEG-4 AVC, 15.2 Mбит/с, 1920x1036
Аудио 1: русский, AC3, 192 kbps, 1 ch, 48 kHz [авторский, Андрей Дольский]
Аудио 2: английский, AC3, 192 kbps, 1 ch, 48 kHz [оригинал]
Субтитры: английские
Главы/чаптеры
Общее
Уникальный идентификатор : 217688952685841315163708503567142083759 (0xA3C55E045B9D47358FEBDD46C625DCAF)
Полное имя : D:\Video\Питомцы.1973.BDRip.1080p by msltel.mkv
Формат : Matroska
Версия формата : Version 4 / Version 2
Размер файла : 11,9 Гбайт
Продолжительность : 1 ч. 41 м.
Общий поток : 16,7 Мбит/сек
Название фильма : Rip by msltel
Дата кодирования : UTC 2018-08-19 08:24:12
Программа кодирования : mkvmerge v8.2.0 ('World of Adventure') 64bit
Библиотека кодирования : libebml v1.3.1 + libmatroska v1.4.2

Видео
Идентификатор : 1
Формат : AVC
Формат/Информация : Advanced Video Codec
Профиль формата : High@L4.1
Настройки формата : CABAC / 4 Ref Frames
Параметр CABAC формата : Да
Параметр RefFrames формата : 4 кадра
Идентификатор кодека : V_MPEG4/ISO/AVC
Продолжительность : 1 ч. 41 м.
Битрейт : 15,2 Мбит/сек
Ширина : 1920 пикселей
Высота : 1036 пикселей
Соотношение сторон : 1,85:1
Режим частоты кадров : Постоянный
Частота кадров : 23,976 (24000/1001) кадра/сек
Цветовое пространство : YUV
Субдискретизация насыщенности : 4:2:0
Битовая глубина : 8 бит
Тип развёртки : Прогрессивная
Бит/(Пиксели*Кадры) : 0.318
Размер потока : 10,8 Гбайт (91%)
Библиотека кодирования : x264 core 155 r2901 7d0ff22
Настройки программы : cabac=1 / ref=4 / deblock=1:-3:-2 / analyse=0x3:0x113 / me=umh / subme=11 / psy=1 / psy_rd=1.00:0.15 / mixed_ref=1 / me_range=32 / chroma_me=1 / trellis=2 / 8x8dct=1 / cqm=0 / deadzone=21,11 / fast_pskip=0 / chroma_qp_offset=-3 / threads=6 / lookahead_threads=1 / sliced_threads=0 / nr=0 / decimate=1 / interlaced=0 / bluray_compat=0 / constrained_intra=0 / bframes=10 / b_pyramid=2 / b_adapt=2 / b_bias=0 / direct=1 / weightb=1 / open_gop=0 / weightp=2 / keyint=230 / keyint_min=23 / scenecut=40 / intra_refresh=0 / rc_lookahead=40 / rc=crf / mbtree=1 / crf=20.6 / qcomp=0.60 / qpmin=0 / qpmax=69 / qpstep=4 / vbv_maxrate=62500 / vbv_bufsize=78125 / crf_max=0.0 / nal_hrd=none / filler=0 / ip_ratio=1.40 / aq=1:1.00
Язык : English
Default : Да
Forced : Нет

Аудио #1
Идентификатор : 2
Формат : DTS
Формат/Информация : Digital Theater Systems
Идентификатор кодека : A_DTS
Продолжительность : 1 ч. 41 м.
Вид битрейта : Постоянный
Битрейт : 768 Кбит/сек
Каналы : 1 канал
Расположение каналов : Front: C
Частота : 48,0 КГц
Частота кадров : 93,750 кадра/сек (512 SPF)
Битовая глубина : 24 бит
Метод сжатия : С потерями
Размер потока : 560 Мбайт (5%)
Заголовок : Андрей Дольский
Язык : Russian
Default : Да
Forced : Нет

Аудио #2
Идентификатор : 3
Формат : DTS
Формат/Информация : Digital Theater Systems
Идентификатор кодека : A_DTS
Продолжительность : 1 ч. 41 м.
Вид битрейта : Постоянный
Битрейт : 768 Кбит/сек
Каналы : 1 канал
Расположение каналов : Front: C
Частота : 48,0 КГц
Частота кадров : 93,750 кадра/сек (512 SPF)
Битовая глубина : 24 бит
Метод сжатия : С потерями
Размер потока : 560 Мбайт (5%)
Заголовок : original
Язык : English
Default : Нет
Forced : Нет

Текст
Идентификатор : 4
Формат : UTF-8
Идентификатор кодека : S_TEXT/UTF8
Идентификатор кодека/Информация : UTF-8 Plain Text
Продолжительность : 1 ч. 41 м.
Битрейт : 57 бит/сек
ElementCount : 1575
Размер потока : 42,8 Кбайт (0%)
Заголовок : английские
Язык : English
Default : Нет
Forced : Нет

Меню
00:00:00.000 : en:Chapter 1
00:21:36.796 : en:Chapter 2
00:42:06.023 : en:Chapter 3
01:01:17.674 : en:Chapter 4
01:21:20.376 : en:Chapter 5
piratbit.pw



Скачать Питомцы через торрент https://a.radikal.ru/a06/1808/75/8bf6c8c7a942.jpg Скачать фильм Питомцы через торрент бесплантно в хорошем качестве О фильме: Красотка Бонни — девчонка, гуляющая сама по себе. Сбежавшая из дома, она с головой погружается во взрослую жизнь. Случайные ... 10 10 1
Info! Золотая раздача, скачанное не засчитывается.
Торрент: Зарегистрирован [2018-08-19 11:49] · скачан: 2 раз
Статус: √ проверено
Размер: 11.89 GB
Как cкачать? Как скачать Питомцы через торрент | UTorrent

% Раздел Тема Автор DL S | L
Фильмы с авторской озвучкой [ 4.4 GB ] Питомцы / Pets [1973 BDRip 720p by msltel] AVO msltel Скачать
1 | 0

28-11-2019 20:33  

Отключить всю рекламу на сайте

    Дорогой пользователь! Огромная просьба, поблагодарите релизера, оцените раздачу и оставьте свои комментарий, если Вы скачали Питомцы через торрент бесплатно! Внесите свою лепту в развитие PiratBit!
    Комментировать посты могут только пользователи прошедшие не сложную регистрацию
    Показать сообщения:    

    Питомцы через торрент
    Скачать бесплатно Питомцы
    Питомцы скачать торрент
    Питомцы смотреть онлайн
    Cкачать фильм Питомцы бесплатно
    Питомцы скачать торрент в хорошем качестве
    Питомцы смотреть онлайн бесплатно в хорошем качестве


    Вы не можете начинать темы
    Вы не можете отвечать на сообщения
    Вы не можете редактировать свои сообщения
    Вы не можете удалять свои сообщения
    Вы не можете голосовать в опросах
    Вы не можете прикреплять файлы к сообщениям
    Вы можете скачивать файлы