1 сезон

1 сезон

iTunes

1

КиноПоиск HD

Кинопоиск HD

iTunes

13

1 сезон

RePack

30

Ultimate

ВАЖНО

ИГРА 18+

pack

RePack

MK11
pack

Легкие деньги

RePack

jed

RePack

fifa19

RePack

RDR2

RePack

NEED FOR SPEED™ PAYBACK

4 сезон

9 сезон

Бесстыжие 9 сезон

Все сериалы

все сериалы на PB.wtf

RePack

FAR CRY 5
  
Magnet ссылка

Святая кровь / Santa sangre (Алехандро Ходоровский) [1989, ужасы, фэнтези, триллер, драма, BDRip 1080p by msltel] AVO piratbit.pw

Святая кровь через торрент piratbit.pw

Размер: 16.83 GB | Добавлен: 2 года 8 мес. назад | Торрент скачан:3 раза
Скачать  

12-08-2018 06:41 Святая кровь Скачать торрент  

Название: Святая кровь
Оригинальное название: Santa sangre
Год выпуска: 1989
Страна: Италия, Мексика
Жанр: ужасы, фэнтези, триллер, драма
Продолжительность: 2:03:00
Перевод: авторский

Режиссер: Алехандро Ходоровский
В ролях: Аксель Ходоровский, Бланка Гуерра, Гай Стокуэлл, Тельма Тиксу, Сабрина Деннисон, Адан Ходоровский, Фавиола Эленка Тапия, Тео Ходоровский, Мария де Хесус Арансабаль, Хесус Хуарес, Серхио Бустаманте, Глория Контрерас, С. Родригез, Сония Рангель Мора, Хоакин Гарсия Варгас, Тео Тапия, Эдгар Е. Джименез Нава, Джакобо Либерман, Эктор Ортега, Бронтис Ходоровский, Валери Крус, Оскар Серафин Алварез, Густаво Агиляр Техада, Роджер Файяр Арройо

О фильме: Феникс родился в цирковой семье. Его отец Орго был метателем ножей, а мать Конча — акробаткой. Однажды женщина увидела, как Орго встречается с молодой татуированной женщиной. В приступе ревности Конча выплеснула кислоту в лицо мужу. В отместку тот отрубил жене обе руки, после чего перерезал себе горло. И это произошло на глазах маленького Феникса. Мальчик оказался в психиатрической лечебнице. Спустя много лет он выходит на свободу и селится у своей безрукой матери. Феникс сидит целыми днями дома, помогает матери готовить еду и пытается изобрести формулу невидимости. По мере того, как Феникса начинают посещать воспоминания детства, в городе начинается череда жестоких убийств...



Качество: BDRip 1080p
Формат: MKV
Видео: MPEG-4 AVC, 17.9 Mбит/с, 1920x1036, 24 кадр/с
Аудио 1: русский, AC3, 192 kbps, 2 ch, 48 kHz [авторский, Антон Алексеев]
Аудио 2: английский, DTS, 1509 kbps, 2 ch, 48 kHz [оригинал]
Субтитры 1: русские
Субтитры 2: английские
Главы/чаптеры
Общее
Уникальный идентификатор : 202627244100761626580045916362132191800 (0x98709673429FDD98B2CD832301147A38)
Полное имя : D:\Video\Святая кровь.1989.BDRip.1080p by msltel.mkv
Формат : Matroska
Версия формата : Version 4 / Version 2
Размер файла : 16,8 Гбайт
Продолжительность : 2 ч. 3 м.
Общий поток : 19,6 Мбит/сек
Название фильма : Rip by msltel
Дата кодирования : UTC 2018-08-12 03:58:30
Программа кодирования : mkvmerge v8.2.0 ('World of Adventure') 64bit
Библиотека кодирования : libebml v1.3.1 + libmatroska v1.4.2

Видео
Идентификатор : 1
Формат : AVC
Формат/Информация : Advanced Video Codec
Профиль формата : High@L4.1
Настройки формата : CABAC / 4 Ref Frames
Параметр CABAC формата : Да
Параметр RefFrames формата : 4 кадра
Идентификатор кодека : V_MPEG4/ISO/AVC
Продолжительность : 2 ч. 2 м.
Битрейт : 17,9 Мбит/сек
Ширина : 1920 пикселей
Высота : 1036 пикселей
Соотношение сторон : 1,85:1
Режим частоты кадров : Постоянный
Частота кадров : 24,000 кадра/сек
Цветовое пространство : YUV
Субдискретизация насыщенности : 4:2:0
Битовая глубина : 8 бит
Тип развёртки : Прогрессивная
Бит/(Пиксели*Кадры) : 0.375
Размер потока : 15,4 Гбайт (91%)
Библиотека кодирования : x264 core 155 r2901 7d0ff22
Настройки программы : cabac=1 / ref=4 / deblock=1:-3:-2 / analyse=0x3:0x113 / me=umh / subme=11 / psy=1 / psy_rd=1.00:0.15 / mixed_ref=1 / me_range=32 / chroma_me=1 / trellis=2 / 8x8dct=1 / cqm=0 / deadzone=21,11 / fast_pskip=0 / chroma_qp_offset=-3 / threads=6 / lookahead_threads=1 / sliced_threads=0 / nr=0 / decimate=1 / interlaced=0 / bluray_compat=0 / constrained_intra=0 / bframes=10 / b_pyramid=2 / b_adapt=2 / b_bias=0 / direct=1 / weightb=1 / open_gop=0 / weightp=2 / keyint=230 / keyint_min=23 / scenecut=40 / intra_refresh=0 / rc_lookahead=40 / rc=crf / mbtree=1 / crf=16.4 / qcomp=0.60 / qpmin=0 / qpmax=69 / qpstep=4 / vbv_maxrate=62500 / vbv_bufsize=78125 / crf_max=0.0 / nal_hrd=none / filler=0 / ip_ratio=1.40 / aq=1:1.00
Язык : English
Default : Да
Forced : Нет

Аудио #1
Идентификатор : 2
Формат : AC-3
Формат/Информация : Audio Coding 3
Идентификатор кодека : A_AC3
Продолжительность : 2 ч. 3 м.
Вид битрейта : Постоянный
Битрейт : 192 Кбит/сек
Каналы : 2 канала
Расположение каналов : Front: L R
Частота : 48,0 КГц
Частота кадров : 31,250 кадров/сек (1536 SPF)
Битовая глубина : 16 бит
Метод сжатия : С потерями
Размер потока : 169 Мбайт (1%)
Заголовок : Антон Алексеев
Язык : Russian
ServiceKind/String : Complete Main
Default : Да
Forced : Нет

Аудио #2
Идентификатор : 3
Формат : DTS
Формат/Информация : Digital Theater Systems
Идентификатор кодека : A_DTS
Продолжительность : 2 ч. 3 м.
Вид битрейта : Постоянный
Битрейт : 1509 Кбит/сек
Каналы : 2 канала
Расположение каналов : Front: L R
Частота : 48,0 КГц
Частота кадров : 93,750 кадра/сек (512 SPF)
Битовая глубина : 24 бит
Метод сжатия : С потерями
Размер потока : 1,30 Гбайт (8%)
Заголовок : original
Язык : English
Default : Нет
Forced : Нет

Текст #1
Идентификатор : 4
Формат : UTF-8
Идентификатор кодека : S_TEXT/UTF8
Идентификатор кодека/Информация : UTF-8 Plain Text
Продолжительность : 1 ч. 58 м.
Битрейт : 19 бит/сек
ElementCount : 454
Размер потока : 16,9 Кбайт (0%)
Заголовок : русские
Язык : Russian
Default : Нет
Forced : Нет

Текст #2
Идентификатор : 5
Формат : UTF-8
Идентификатор кодека : S_TEXT/UTF8
Идентификатор кодека/Информация : UTF-8 Plain Text
Продолжительность : 1 ч. 59 м.
Битрейт : 16 бит/сек
ElementCount : 720
Размер потока : 14,0 Кбайт (0%)
Заголовок : английские
Язык : English
Default : Нет
Forced : Нет

Меню
00:00:00.000 : :Chapter 1
00:06:43.166 : :Chapter 2
00:08:31.083 : :Chapter 3
00:17:29.625 : :Chapter 4
00:24:08.708 : :Chapter 5
00:31:55.875 : :Chapter 6
00:36:53.541 : :Chapter 7
00:41:03.916 : :Chapter 8
00:46:14.625 : :Chapter 9
00:52:32.291 : :Chapter 10
00:59:41.833 : :Chapter 11
01:08:46.416 : :Chapter 12
01:17:30.583 : :Chapter 13
01:23:56.833 : :Chapter 14
01:29:28.833 : :Chapter 15
01:34:39.000 : :Chapter 16
01:40:08.208 : :Chapter 17
01:48:53.250 : :Chapter 18
01:52:08.958 : :Chapter 19
01:57:24.458 : :Chapter 20
piratbit.pw



Скачать Святая кровь через торрент https://b.radikal.ru/b41/1808/e7/ab8a86729a83.png Скачать фильм Святая кровь через торрент бесплантно в хорошем качестве О фильме: Феникс родился в цирковой семье. Его отец Орго был метателем ножей, а мать Конча — акробаткой. Однажды женщина увидела, как Орго ... 10 10 1
Info! Золотая раздача, скачанное не засчитывается.
Торрент: Зарегистрирован [2018-08-12 06:41] · скачан: 3 раз
Статус: √ проверено
Размер: 16.83 GB
Как cкачать? Как скачать Святая кровь через торрент | UTorrent

% Раздел Тема Автор DL S | L
Фильмы с авторской озвучкой [ 5.49 GB ] Святая кровь / Santa sangre [1989 BDRip 720p by msltel] AVO msltel Скачать
1 | 0

28-11-2019 20:33  

Отключить всю рекламу на сайте

    Дорогой пользователь! Огромная просьба, поблагодарите релизера, оцените раздачу и оставьте свои комментарий, если Вы скачали Святая кровь через торрент бесплатно! Внесите свою лепту в развитие PiratBit!
    Комментировать посты могут только пользователи прошедшие не сложную регистрацию
    Показать сообщения:    

    Святая кровь через торрент
    Скачать бесплатно Святая кровь
    Святая кровь скачать торрент
    Святая кровь смотреть онлайн
    Cкачать фильм Святая кровь бесплатно
    Святая кровь скачать торрент в хорошем качестве
    Святая кровь смотреть онлайн бесплатно в хорошем качестве


    Вы не можете начинать темы
    Вы не можете отвечать на сообщения
    Вы не можете редактировать свои сообщения
    Вы не можете удалять свои сообщения
    Вы не можете голосовать в опросах
    Вы не можете прикреплять файлы к сообщениям
    Вы можете скачивать файлы