Marvel's Avengers Deluxe Edition (супер цена) 159р. Внимание количество ограничено!!!

2 сезон

iTunes

iTunes

1

iTunes

iTunes

iTunes

WEBRip

iTunes

30
pack

Новость дня

ВАЖНО

!!Акция!!

Alien_RageХит недели

RePack

Horizon Zero Dawn

ИГРА 18+

pack

RePack

jed

!!Акция!!

Alien_Rage

RePack

fifa19

RePack

Assassins Creed: Odyssey

RePack

NEED FOR SPEED™ PAYBACK

4 сезон

9 сезон

Бесстыжие 9 сезон

Все сериалы

все сериалы на PB.wtf

RePack

FAR CRY 5
  

Гуляй, Вася! (Роман Каримов) [2016 г., Комедия, BDRip 1080p, HEVC] piratbit.pw

Гуляй, Вася! через торрент piratbit.pw

Раздают: 1 [ 0 KB/s ]
Размер: 3.52 GB | Добавлен: 2 года 1 мес. назад | Торрент скачан:113 раз
Скачать  

06-08-2018 06:05 Гуляй, Вася! Скачать торрент  

Гуляй Вася!
Год выпуска: 2016
Страна: Россия
Жанр: Комедия
Продолжительность: 01:35:52
Субтитры: Отсутствуют

Режиссер: Роман Каримов
Продюссер: Андрей Новиков, Александр Котелевский, Эдуард Илоян
Сценарий: Роман Каримов, Яна Лебедева

Бюджет: 40 000 000 руб.



В ролях: Ефим Петрунин, Любовь Аксенова, Роман Курцын, Софья Райзман, Борис Дергачев, Сергей Аброскин, Светлана Степанковская, Вера Панфилова, Наталья Тетенова, Давид Петросян, Станислав Тляшев

Описание: Бедный Митя влип по полной: случайно сделал предложение, а отец девушки, как будто только этого и ждал — тут же назначил дату свадьбы. Все бы ничего, да только Митя… уже женат! Он возвращается в свой город, чтобы экстренно развестись. Но Василиса (или просто Вася), с которой они давно не живут, — циничная стерва, и за развод придется побороться. Простейший способ ускорить процесс — предъявить первую попавшуюся «невесту». Кто же знал, что у нее имеется настоящий жених, местный качок… Окончательно все запутывается, когда разруливать ситуацию берутся бывшие одноклассники Мити — подкаблучник Паша и аферист Гарик.
Доп. информация: -
H.265/HEVC (High Efficiency Video Coding) - это новый стандарт кодирования видео.
- Стандарт H.265/HEVC является логическим продолжением стандарта
H.264/AVC (Advanced Video Coding), и характеризуется более эффективными
алгоритмами сжатия, а также поддержкой высокого разрешения вплоть до 8K UHD
(8192x4320). Первая версия стандарта H.265 была опубликована в начале 2013 года.
- Рипы в фомате HEVC поддерживается не всеми аппаратными проигрывателями.
- Для корректного воспроизведения может потребоваться обновление ПО.
- Владельцам несовместимого железа просьба не беспокоить,
есть альтернативные релизы.
Качество: BDRip 1080p
Формат: MKV
Видео кодек: H.265
Аудио кодек: AC3
Видео: 1920x1080, 4794 Kbps
Аудио: AC3, 6 ch, 448 Kbps
Релиз от: Мичман
Общее
Уникальный идентификатор : 180699849925146512517572011000473442755 (0x87F18672F6CADD40A555628C11C9D9C3)
Полное имя : J:\ФИЛЬМЫ\Гуляй, Вася! 2016. 1080. HEVC. (1).mkv
Формат : Matroska
Версия формата : Version 4 / Version 2
Размер файла : 3,52 Гбайт
Продолжительность : 1 ч. 36 м.
Общий поток : 5244 Кбит/сек
Название фильма : GULYAI_VASYA_HDCLUB-.Title1003
Дата кодирования : UTC 2017-06-26 18:25:44
Программа кодирования : mkvmerge v9.2.0 ('Photograph') 64bit
Библиотека кодирования : libebml v1.3.3 + libmatroska v1.4.4
Обложка : Yes
Attachments : cover.jpg

Видео
Идентификатор : 1
Формат : HEVC
Формат/Информация : High Efficiency Video Coding
Идентификатор кодека : V_MPEGH/ISO/HEVC
Продолжительность : 1 ч. 36 м.
Битрейт : 4794 Кбит/сек
Ширина : 1920 пикселей
Высота : 1080 пикселей
Соотношение сторон : 16:9
Режим частоты кадров : Постоянный
Частота кадров : 24,000 кадра/сек
Бит/(Пиксели*Кадры) : 0.096
Размер потока : 3,22 Гбайт (91%)
Default : Да
Forced : Нет

Аудио
Идентификатор : 2
Формат : AC-3
Формат/Информация : Audio Coding 3
Идентификатор кодека : A_AC3
Продолжительность : 1 ч. 36 м.
Вид битрейта : Постоянный
Битрейт : 448 Кбит/сек
Каналы : 6 каналов
Расположение каналов : Front: L C R, Side: L R, LFE
Частота : 48,0 КГц
Частота кадров : 31,250 кадров/сек (1536 SPF)
Битовая глубина : 16 бит
Метод сжатия : С потерями
Размер потока : 308 Мбайт (9%)
Язык : Russian
ServiceKind/String : Complete Main
Default : Да
Forced : Нет

Меню
00:00:00.000 : en:(01)00:00:00:000
00:00:38.500 : en:(02)00:00:38:500
00:10:37.208 : en:(03)00:10:37:208
00:21:31.958 : en:(04)00:21:31:958
00:33:54.250 : en:(05)00:33:54:250
00:44:16.250 : en:(06)00:44:16:250
00:58:07.541 : en:(07)00:58:07:541
01:09:39.916 : en:(08)01:09:39:916
01:21:14.416 : en:(09)01:21:14:416

piratbit.pw



Скачать Гуляй, Вася! через торрент https://a.radikal.ru/a21/1808/e9/a915f376d631.jpg Скачать фильм Гуляй, Вася! через торрент бесплантно в хорошем качестве Описание: Бедный Митя влип по полной: случайно сделал предложение, а отец девушки, как будто только этого и ждал — тут же назначил дату ... 10 10 4
Торрент: Зарегистрирован [2018-08-06 06:05] · скачан: 113 раз
Статус: √ проверено
Размер: 3.52 GB
Как cкачать? Как скачать Гуляй, Вася! через торрент | qTorrent

% Раздел Тема Автор DL S | L
Наши новые фильмы 2017 [ 1.46 GB ] Гуляй Вася! [2017 BDRip-AVC] [] bober100 Скачать
2 | 0
Наши фильмы (HD, WEB-DL 720p, 1080p) [ 9.15 GB ] Гуляй Вася! [2017 BDRip 1080p] [] bober100 Скачать
3 | 0
Наши новые фильмы 2017 [ 745 MB ] Гуляй Вася! [2017 BDRip] DUB [] bober100 Скачать
1 | 0
Наши фильмы (HD, WEB-DL 720p, 1080p) [ 3.28 GB ] Гуляй Вася! [2017 BDRip 720p] от ExKinoRay Enigma2010 Скачать
1 | 0
Наши фильмы (Blu-ray, BD-Remux, HDDVD) [ 17.52 GB ] Гуляй Вася! [2017 Blu-ray 1080р] [] bober100 Скачать
1 | 0
Наши фильмы (Blu-ray, BD-Remux, HDDVD) [ 15.89 GB ] Гуляй Вася! [2017 BD Remux 1080p] [] bober100 Скачать
1 | 0
Наши новые фильмы 2017 [ 1.46 GB ] Гуляй Вася! [2017 BDRip] Оригинал [] Twi7ter Скачать
2 | 0

28-11-2019 20:33  

Отключить всю рекламу на сайте

    Дорогой пользователь! Огромная просьба, поблагодарите релизера, оцените раздачу и оставьте свои комментарий, если Вы скачали Гуляй, Вася! через торрент бесплатно! Внесите свою лепту в развитие PiratBit!
    Комментировать посты могут только пользователи прошедшие не сложную регистрацию
    Показать сообщения:    

    Гуляй, Вася! через торрент
    Скачать бесплатно Гуляй, Вася!
    Гуляй, Вася! скачать торрент
    Гуляй, Вася! смотреть онлайн
    Cкачать фильм Гуляй, Вася! бесплатно
    Гуляй, Вася! скачать торрент в хорошем качестве
    Гуляй, Вася! смотреть онлайн бесплатно в хорошем качестве


    Вы не можете начинать темы
    Вы не можете отвечать на сообщения
    Вы не можете редактировать свои сообщения
    Вы не можете удалять свои сообщения
    Вы не можете голосовать в опросах
    Вы не можете прикреплять файлы к сообщениям
    Вы можете скачивать файлы