Marvel's Avengers Deluxe Edition (супер цена) 159р. Внимание количество ограничено!!!

2 сезон

iTunes

iTunes

1

iTunes

iTunes

iTunes

WEBRip

iTunes

30
pack

Новость дня

ВАЖНО

!!Акция!!

Alien_RageХит недели

RePack

Horizon Zero Dawn

ИГРА 18+

pack

RePack

jed

!!Акция!!

Alien_Rage

RePack

fifa19

RePack

Assassins Creed: Odyssey

RePack

NEED FOR SPEED™ PAYBACK

4 сезон

9 сезон

Бесстыжие 9 сезон

Все сериалы

все сериалы на PB.wtf

RePack

FAR CRY 5
  

Ледниковый период: Столкновение неизбежно / Ice Age: Collision Course (Майк Тёрмайер, Гален Т. Чу) [2016, мультфильм, фантастика, фэнтези, UHD BDRemux 2160p] Дубляж [Лицензия] piratbit.pw

Ледниковый период: Столкновение неизбежно через торрент piratbit.pw

Размер: 32.48 GB | Добавлен: 2 года 1 мес. назад | Торрент скачан:24 раза
Скачать  

30-07-2018 17:40 Ледниковый период: Столкновение неизбежно Скачать торрент  

Ледниковый период: Столкновение неизбежно / Ice Age: Collision Course«Маленький шаг для него. Большая проблема для всех»
Год выпуска: 2016
Страна: США
Жанр: мультфильм, фантастика, фэнтези, комедия, приключения, семейный
Продолжительность: 01:34:32
Перевод: Дублированный
Субтитры: Русские, английские
Режиссер: Майк Тёрмайер , Гален Т. Чу
В ролях:

Рэй Романо (Manny, озвучка), Джон Легуизамо (Sid, озвучка), Дэнис Лири (Diego, озвучка), Куин Латифа (Ellie, озвучка), Шонн Уильям Скотт (Crash, озвучка), Саймон Пегг (Buck / Pythagorus Buck / Robo Buck, озвучка), Дженнифер Лопез (Shira, озвучка), Нил Тайсон (Neil deBuck Weasel, озвучка), Джесси Тайлер Фергюсон (Shangri Llama, озвучка), Джесси Джей (Brooke, озвучка), Кеке Палмер (Peaches, озвучка), Адам Дивайн (Julian, озвучка)
Описание:
Отчаянная погоня за неуловимым желудем катапультирует Скрата прямо в космос, где он случайно запускает целую серию космических событий. Именно они изменят весь мир Ледникового периода и станут реальной угрозой для него. Чтобы спастись, Сид, Мэнни, Диего и остальные звери должны покинуть свои дома, отправиться в забавное и захватывающее приключение в экзотические новые земли и встретиться со множеством красочных новых персонажей.
Рейтинг:

MPAA: PG - Рекомендуется присутствие родителей
Качество: UHD BDRemux 2160p
Формат: MKV
Видео: HEVC, HDR, 42800 Kбит/с, 3840x2160
Аудио: Русский - DTS, 6 ch, 768 Кбит/с
Аудио: Aнглийский - TrueHD+Atmos, 8 ch, 4924 Кбит/с
Аудио: Aнглийский - AC3, 6 ch, 640 Кбит/c
Навигация по главам: есть
General
Unique ID : 51875423797803679606773116585045552103 (0x2706D7DC69EB282E748B12F3E1B26BE7)
Complete name : F:\Видосики\Ice.Age.Collision.Course.2016.remuX.216Op.hdR.werecut.PROD.mkv
Format : Matroska
Format version : Version 4 / Version 2
File size : 32.5 GiB
Duration : 1 h 34 min
Overall bit rate mode : Variable
Overall bit rate : 49.2 Mb/s
Movie name : Ice Age Collision Course 2016 OT werecut PROD.
Encoded date : UTC 2018-07-30 07:49:26
Writing application : mkvmerge v24.0.0 ('Beyond The Pale') 64-bit
Writing library : libebml v1.3.6 + libmatroska v1.4.9

Video
ID : 1
Format : HEVC
Format/Info : High Efficiency Video Coding
Commercial name : HDR10
Format profile : Main 10@L5.1@High
Codec ID : V_MPEGH/ISO/HEVC
Duration : 1 h 34 min
Bit rate : 42.8 Mb/s
Width : 3 840 pixels
Height : 2 160 pixels
Display aspect ratio : 16:9
Frame rate mode : Constant
Frame rate : 23.976 (24000/1001) FPS
Color space : YUV
Chroma subsampling : 4:2:0 (Type 2)
Bit depth : 10 bits
Bits/(Pixel*Frame) : 0.215
Stream size : 28.3 GiB (87%)
Writing library : ATEME Titan File 3.7.6 (4.7.6.101)
Language : English
Default : Yes
Forced : No
Color range : Limited
Color primaries : BT.2020
Transfer characteristics : PQ
Matrix coefficients : BT.2020 non-constant
Mastering display color pri : Display P3
Mastering display luminance : min: 0.0000 cd/m2, max: 1000 cd/m2

Audio #1
ID : 2
Format : DTS
Format/Info : Digital Theater Systems
Codec ID : A_DTS
Duration : 1 h 34 min
Bit rate mode : Constant
Bit rate : 768 kb/s
Channel(s) : 6 channels
Channel positions : Front: L C R, Side: L R, LFE
Sampling rate : 48.0 kHz
Frame rate : 93.750 FPS (512 SPF)
Bit depth : 24 bits
Compression mode : Lossy
Stream size : 519 MiB (2%)
Language : Russian
Default : Yes
Forced : Yes

Audio #2
ID : 3
Format : TrueHD
Format profile : TrueHD+Atmos / TrueHD
Codec ID : A_TRUEHD
Duration : 1 h 34 min
Bit rate mode : Variable
Bit rate : 4 924 kb/s
Maximum bit rate : 7 932 kb/s
Channel(s) : Object Based / 8 channels
Channel positions : Object Based / Front: L C R, Side: L R, Back: L R, LFE
Sampling rate : / 48.0 kHz
Frame rate : 1 200.000 FPS (40 SPF)
Compression mode : Lossless
Stream size : 3.25 GiB (10%)
Language : English
Default : No
Forced : No

Audio #3
ID : 4
Format : AC-3
Format/Info : Audio Coding 3
Codec ID : A_AC3
Duration : 1 h 34 min
Bit rate mode : Constant
Bit rate : 640 kb/s
Channel(s) : 6 channels
Channel positions : Front: L C R, Side: L R, LFE
Sampling rate : 48.0 kHz
Frame rate : 31.250 FPS (1536 SPF)
Bit depth : 16 bits
Compression mode : Lossy
Stream size : 433 MiB (1%)
Language : English
Service kind : Complete Main
Default : No
Forced : No

Text #1
ID : 5
Format : UTF-8
Codec ID : S_TEXT/UTF8
Codec ID/Info : UTF-8 Plain Text
Duration : 24 min 51 s
Bit rate : 0 b/s
Count of elements : 2
Stream size : 109 Bytes (0%)
Language : Russian
Default : Yes
Forced : Yes

Text #2
ID : 6
Format : UTF-8
Codec ID : S_TEXT/UTF8
Codec ID/Info : UTF-8 Plain Text
Duration : 1 h 23 min
Bit rate : 99 b/s
Count of elements : 1221
Stream size : 61.1 KiB (0%)
Language : Russian
Default : No
Forced : No

Text #3
ID : 7
Format : UTF-8
Codec ID : S_TEXT/UTF8
Codec ID/Info : UTF-8 Plain Text
Duration : 1 h 23 min
Bit rate : 60 b/s
Count of elements : 1221
Stream size : 36.9 KiB (0%)
Language : English
Default : No
Forced : No

Menu
00:00:00.000 : en:00:00:00.000
00:03:09.106 : en:00:03:09.106
00:05:24.366 : en:00:05:24.366
00:09:06.087 : en:00:09:06.087
00:13:22.301 : en:00:13:22.301
00:18:05.751 : en:00:18:05.751
00:20:50.583 : en:00:20:50.583
00:23:10.306 : en:00:23:10.306
00:27:29.898 : en:00:27:29.898
00:30:15.981 : en:00:30:15.981
00:32:54.347 : en:00:32:54.347
00:36:13.588 : en:00:36:13.588
00:39:33.454 : en:00:39:33.454
00:42:58.701 : en:00:42:58.701
00:47:35.019 : en:00:47:35.019
00:51:11.735 : en:00:51:11.735
00:55:50.764 : en:00:55:50.764
01:01:09.457 : en:01:01:09.457
01:05:06.402 : en:01:05:06.402
01:09:39.300 : en:01:09:39.300
01:14:36.889 : en:01:14:36.889
01:17:41.532 : en:01:17:41.532
01:21:43.065 : en:01:21:43.065
01:24:46.498 : en:01:24:46.498
piratbit.pw



Скачать Ледниковый период: Столкновение неизбежно через торрент https://c.radikal.ru/c39/1807/19/53347c7f36e2.jpg Скачать фильм Ледниковый период: Столкновение неизбежно через торрент бесплантно в хорошем качестве Описание: Отчаянная погоня за неуловимым желудем катапультирует Скрата прямо в космос, где он случайно запускает целую серию космических ... 10 10 2
Info! Золотая раздача, скачанное не засчитывается.
Торрент: Зарегистрирован [2018-07-30 17:40] · скачан: 24 раз
Статус: √ проверено
Размер: 32.48 GB
Как cкачать? Как скачать Ледниковый период: Столкновение неизбежно через торрент | qTorrent

% Раздел Тема Автор DL S | L
Зарубежные Мультфильмы (BDRip 1080p, 720p, Blu-ray, BD-Remux) [ 20.27 GB ] Ледниковый период: Столкновение неизбежно / Ice Age: Collision Course [2016 Мультфильм BD Remux 1080p] DUB [] bober100 Скачать
1 | 0
Иностранные мультфильмы [ 1.46 GB ] Ледниковый период: Столкновение неизбежно / Ice Age: Collision Course [2016 мультфильм HDRip "BD EUR"] coc900 Скачать
1 | 0
Иностранные мультфильмы [ 2.05 GB ] Ледниковый период: Столкновение неизбежно / Ice Age: Collision Course [2016 мультфильм HDRip-AVC PsYcho Скачать
1 | 0
Иностранные мультфильмы [ 1.42 GB ] Ледниковый период: Столкновение неизбежно / Ice Age: Collision Course [2016 мультфильм BDRip] DUB Twi7ter Скачать
2 | 0
Зарубежные Мультфильмы (BDRip 1080p, 720p, Blu-ray, BD-Remux) [ 7.76 GB ] Ледниковый период: Столкновение неизбежно / Ice Age: Collision Course [2016 мультфильм BDRip 1080p] - -Lexx- Скачать
1 | 0
Иностранные мультфильмы [ 1.41 GB ] Ледниковый период: Столкновение неизбежно / Ice Age: Collision Course [2016 мультфильм BDRip] DUB bober100 Скачать
1 | 0
3D Мультфильмы [ 9.9 GB ] Ледниковый период: Столкновение неизбежно в 3Д / Ice Age: Collision Course 3D [2016 Мультфильм BDrip 1080p] DUB OverUnder / Вертикальная стереопара serega768 Скачать
1 | 0

28-11-2019 20:33  

Отключить всю рекламу на сайте

    Дорогой пользователь! Огромная просьба, поблагодарите релизера, оцените раздачу и оставьте свои комментарий, если Вы скачали Ледниковый период: Столкновение неизбежно через торрент бесплатно! Внесите свою лепту в развитие PiratBit!
    Комментировать посты могут только пользователи прошедшие не сложную регистрацию
    Показать сообщения:    

    Ледниковый период: Столкновение неизбежно через торрент
    Скачать бесплатно Ледниковый период: Столкновение неизбежно
    Ледниковый период: Столкновение неизбежно скачать торрент
    Ледниковый период: Столкновение неизбежно смотреть онлайн
    Cкачать фильм Ледниковый период: Столкновение неизбежно бесплатно
    Ледниковый период: Столкновение неизбежно скачать торрент в хорошем качестве
    Ледниковый период: Столкновение неизбежно смотреть онлайн бесплатно в хорошем качестве


    Вы не можете начинать темы
    Вы не можете отвечать на сообщения
    Вы не можете редактировать свои сообщения
    Вы не можете удалять свои сообщения
    Вы не можете голосовать в опросах
    Вы не можете прикреплять файлы к сообщениям
    Вы можете скачивать файлы