Ссылка на приватное зеркало нашего сайта всего за 1$. Внимание количество ограничено!!!

2 сезон

iTunes

iTunes

1

iTunes

iTunes

iTunes

WEBRip

iTunes

30
pack

Новость дня

ВАЖНО

!!Акция!!

Alien_RageХит недели

RePack

Horizon Zero Dawn

ИГРА 18+

pack

RePack

jed

!!Акция!!

Alien_Rage

RePack

fifa19

RePack

Assassins Creed: Odyssey

RePack

NEED FOR SPEED™ PAYBACK

4 сезон

9 сезон

Бесстыжие 9 сезон

Все сериалы

все сериалы на PB.wtf

RePack

FAR CRY 5
  

Гоголь. Вий (Егор Баранов) [2018, детектив, приключения, драма, BDRip 720p] [Лицензия] piratbit.pw

Гоголь. Вий через торрент piratbit.pw

Размер: 4.95 GB | Добавлен: 2 года 1 мес. назад | Торрент скачан:339 раз
Скачать  

28-07-2018 19:06 Гоголь. Вий Скачать торрент  

Гоголь. Вий
Год выпуска: 2018
Страна: Россия
Жанр: детектив, приключения, драма
Продолжительность: 01:39:13
Перевод: Не требуется | Лицензия
Субтитры: русские, английские

Режиссер: Егор Баранов

rating

В ролях:

Александр Петров (Николай Гоголь), Олег Меньшиков (Яков Гуро, сыщик), Евгений Стычкин (Бинх, полицейский), Таисия Вилкова (Лиза), Артем Ткаченко (граф Данишевский), Екатерина Бурлакова (монахиня), Сергей Бадюк (Вакула, кузнец), Ян Цапник (Бомгарт, доктор), Алексей Вертков (Хома Брут, мастер восточных единоборств и философ), Марта Тимофеева (Василина), Юлия Франц, Ксения Разина (Ульяна)
Описание:

Писарь из Санкт-Петербурга Николай Гоголь бросает вызов загадочному тёмному Всаднику, который жестоко расправляется с девушками в окрестностях села Диканька. Собрав команду из местного полицейского, пьяницы-доктора, суеверного кузнеца и странствующего философа-экзорциста, Гоголь пытается заманить злодея в ловушку, но на его пути встает самое жуткое порождение нечистой силы - Вий, один взгляд которого способен высосать душу смертного. Неожиданно для себя Гоголь выясняет, что с потусторонними силами его связывают не только таинственные видения.

Качество: BDRip 720p
Формат: MKV

Видео: MPEG-4 AVC, 1280x536, 5000 kbps, 24,000 fps
Аудио#1: русский, DTS 5.1, 48 kHz, 1509 kbps | Лицензия
Аудио#2: русский, AC3 5.1, 48 kHz, 640 kbps | Лицензия
скриншот  скриншот  скриншот  скриншот  скриншот  

General
Уникальный идентификатор : 242961572547509929877631166546056229611 (0xB6C8B260DC2822EC81BA06D054FEB2EB)
Полное имя : F:TorrentGogolViyBDRip720p.mkv
Формат : Matroska
Версия формата : Version 4 / Version 2
Размер файла : 4.95 GiB
Продолжительность : 1 h 39 min
Общий поток : 7 138 kb/s
Дата кодирования : UTC 2018-07-28 09:08:07
Программа кодирования : mkvmerge v9.5.0 ('Quiet Fire') 64bit
Библиотека кодирования : libebml v1.3.4 + libmatroska v1.4.5

Video
Идентификатор : 1
Формат : AVC
Формат/Информация : Advanced Video Codec
Профиль формата : High@L4.1
Настройки формата : CABAC / 9 Ref Frames
Параметр CABAC формата : Yes
Параметр RefFrames формата : 9 frames
Идентификатор кодека : V_MPEG4/ISO/AVC
Продолжительность : 1 h 39 min
Битрейт : 5 000 kb/s
Ширина : 1 280 pixels
Высота : 536 pixels
Соотношение сторон : 2.40:1
Режим частоты кадров : Constant
Частота кадров : 24.000 FPS
Цветовое пространство : YUV
Субдискретизация насыщенности : 4:2:0
Битовая глубина : 8 bits
Тип развёртки : Progressive
Бит/(Пиксели*Кадры) : 0.304
Размер потока : 3.46 GiB (70%)
Библиотека кодирования : x264 core 155 r2901M 7d0ff22
Настройки программы : cabac=1 / ref=9 / deblock=1:-3:-3 / analyse=0x3:0x133 / me=umh / subme=11 / psy=1 / psy_rd=1.00:0.00 / mixed_ref=1 / me_range=48 / chroma_me=1 / trellis=2 / 8x8dct=1 / cqm=0 / deadzone=21,11 / fast_pskip=0 / chroma_qp_offset=-2 / threads=9 / lookahead_threads=2 / sliced_threads=0 / nr=0 / decimate=0 / interlaced=0 / bluray_compat=0 / constrained_intra=0 / bframes=10 / b_pyramid=2 / b_adapt=2 / b_bias=0 / direct=3 / weightb=1 / open_gop=0 / weightp=2 / keyint=240 / keyint_min=3 / scenecut=40 / intra_refresh=0 / rc_lookahead=120 / rc=2pass / mbtree=0 / bitrate=5000 / ratetol=1.0 / qcomp=0.70 / qpmin=0 / qpmax=69 / qpstep=4 / cplxblur=20.0 / qblur=0.5 / vbv_maxrate=50000 / vbv_bufsize=62500 / nal_hrd=none / filler=0 / ip_ratio=1.40 / pb_ratio=1.30 / aq=3:0.80
Default : Yes
Forced : No
Цветовой диапазон : Limited
Основные цвета : BT.709
Характеристики трансфера : BT.709
Коэффициенты матрицы : BT.709

Audio #1
Идентификатор : 2
Формат : DTS
Формат/Информация : Digital Theater Systems
Идентификатор кодека : A_DTS
Продолжительность : 1 h 39 min
Вид битрейта : Constant
Битрейт : 1 509 kb/s
Каналы : 6 channels
Расположение каналов : Front: L C R, Side: L R, LFE
Частота : 48.0 kHz
Частота кадров : 93.750 FPS (512 SPF)
Битовая глубина : 24 bits
Метод сжатия : Lossy
Размер потока : 1.05 GiB (21%)
Язык : Russian
Default : Yes
Forced : No

Audio #2
Идентификатор : 3
Формат : AC-3
Формат/Информация : Audio Coding 3
Идентификатор кодека : A_AC3
Продолжительность : 1 h 39 min
Вид битрейта : Constant
Битрейт : 640 kb/s
Каналы : 6 channels
Расположение каналов : Front: L C R, Side: L R, LFE
Частота : 48.0 kHz
Частота кадров : 31.250 FPS (1536 SPF)
Битовая глубина : 16 bits
Метод сжатия : Lossy
Размер потока : 454 MiB (9%)
Язык : Russian
Default : No
Forced : No

Text #1
Идентификатор : 4
Формат : UTF-8
Идентификатор кодека : S_TEXT/UTF8
Идентификатор кодека/Информация : UTF-8 Plain Text
Продолжительность : 1 h 35 min
Битрейт : 70 b/s
ElementCount : 951
Размер потока : 49.5 KiB (0%)
Язык : Russian
Default : No
Forced : No

Text #2
Идентификатор : 5
Формат : UTF-8
Идентификатор кодека : S_TEXT/UTF8
Идентификатор кодека/Информация : UTF-8 Plain Text
Продолжительность : 1 h 35 min
Битрейт : 40 b/s
ElementCount : 951
Размер потока : 28.1 KiB (0%)
Язык : English
Default : No
Forced : No

Menu
00:00:00.000 : en:Chapter 1
00:00:30.041 : en:Chapter 2
00:12:28.250 : en:Chapter 3
00:25:02.416 : en:Chapter 4
00:35:45.250 : en:Chapter 5
00:49:36.458 : en:Chapter 6
01:00:24.041 : en:Chapter 7
01:14:40.166 : en:Chapter 8
01:27:46.000 : en:Chapter 9

piratbit.pw



Скачать Гоголь. Вий через торрент http://i104.fastpic.ru/big/2018/0728/78/395bd7d08cb3b4758718a9972a1d1978.jpeg Скачать фильм Гоголь. Вий через торрент бесплантно в хорошем качестве Описание: Писарь из Санкт-Петербурга Николай Гоголь бросает вызов загадочному тёмному Всаднику, который жестоко расправляется с девушками в ... 9 10 9
Info! Золотая раздача, скачанное не засчитывается.
Торрент: Зарегистрирован [2018-07-28 19:06] · скачан: 339 раз
Статус: √ проверено
Размер: 4.95 GB
Как cкачать? Как скачать Гоголь. Вий через торрент | qTorrent

% Раздел Тема Автор DL S | L
Наши новые фильмы 2018-2019 [ 1.5 GB ] Гоголь. Вий [2018 BDRip-AVC] [Русский] [] - ExKinoRay Enigma2010 Скачать
1 | 1
Наши фильмы (Blu-ray, BD-Remux, HDDVD) [ 20.25 GB ] Гоголь. Вий [2018 BD Remux 1080p] [] bober100 Скачать
1 | 0
Наши новые фильмы 2018-2019 [ 1.46 GB ] Гоголь. Вий [2018 BDRip] [Русский] [] Twi7ter Скачать
4 | 1
Наши фильмы (HD, WEB-DL 720p, 1080p) [ 8.42 GB ] Гоголь. Вий [2018 BDRip 1080p] [] bober100 Скачать
2 | 0
Наши новые фильмы 2018-2019 [ 745 MB ] Гоголь. Вий [2018 HDRip] [] bober100 Скачать
2 | 0
Наши новые фильмы 2018-2019 [ 2.17 GB ] Гоголь. Вий [2018 BDRip-AVC] [] bober100 Скачать
2 | 0
Наши новые фильмы 2018-2019 [ 1.45 GB ] Гоголь. Вий [2018 BDRip] [] bober100 Скачать
1 | 0

28-11-2019 20:33  

Отключить всю рекламу на сайте

    Дорогой пользователь! Огромная просьба, поблагодарите релизера, оцените раздачу и оставьте свои комментарий, если Вы скачали Гоголь. Вий через торрент бесплатно! Внесите свою лепту в развитие PiratBit!
    Комментировать посты могут только пользователи прошедшие не сложную регистрацию
    Показать сообщения:    

    Гоголь. Вий через торрент
    Скачать бесплатно Гоголь. Вий
    Гоголь. Вий скачать торрент
    Гоголь. Вий смотреть онлайн
    Cкачать фильм Гоголь. Вий бесплатно
    Гоголь. Вий скачать торрент в хорошем качестве
    Гоголь. Вий смотреть онлайн бесплатно в хорошем качестве


    Вы не можете начинать темы
    Вы не можете отвечать на сообщения
    Вы не можете редактировать свои сообщения
    Вы не можете удалять свои сообщения
    Вы не можете голосовать в опросах
    Вы не можете прикреплять файлы к сообщениям
    Вы можете скачивать файлы