1 сезон

1 сезон

iTunes

1

КиноПоиск HD

Кинопоиск HD

iTunes

13

1 сезон

RePack

30

Новинка

ВАЖНО

ИГРА 18+

pack

RePack

MK11
pack

Легкие деньги

RePack

jed

RePack

fifa19

RePack

RDR2

RePack

NEED FOR SPEED™ PAYBACK

4 сезон

9 сезон

Бесстыжие 9 сезон

Все сериалы

все сериалы на PB.wtf

RePack

FAR CRY 5
  
Magnet ссылка

Голливудские шлюхи с бензопилами / Hollywood Chainsaw Hookers (Фред Олен Рэй) [1988, ужасы, комедия, BDRip 1080p] AVO [Андрей Дольский], VO [Xixidok] piratbit.pw

Голливудские шлюхи с бензопилами через торрент piratbit.pw

Размер: 3.89 GB | Добавлен: 2 года 8 мес. назад | Торрент скачан:78 раз
Скачать  

23-07-2018 18:52 Голливудские шлюхи с бензопилами Скачать торрент  

Голливудские шлюхи с бензопилами / Hollywood Chainsaw Hookers
««They Charge An Arm and a Leg!»»

Год выпуска: 1988
Страна: США
Жанр: ужасы, комедия

Продолжительность: 01:14:36
Перевод: Авторский одноголосый [Андрей Дольский]; Любительский одноголосый [Xixidok]
Режиссер: Фред Олен Рэй
В ролях:

Гуннар Хансен (The Stranger), Линни Куигли (Samantha), Джей Ричардсон (Jack Chandler), Доун Уайлдсмит (Lori), Мишель Бауэр (Mercedes), Эстер Элиз (Lisa), Тришиа Барнс (Ilsa), Фокс Харрис (Hermie), Джимми Уильямс (Bo), Майкл Сони (Jake the Bartender), Дэннис Т. Муни (Harrison), Джерри Миллер (Murphy)
Описание:
Ведя поиски пропавшей девушки, частный детектив выходит на след тайной религиозной секты, состоящей из вооружённых бензопилами проституток.
Рейтинг:
rating
MPAA: R - Лицам до 17 лет обязательно присутствие взрослого
Качество: BDRip 1080p
Формат: MKV
Видео: AVC, 1280x720 (16:9), 6500 kbps, 23,976 fps, 0,294 bpp
Аудио №1: русский / AC3 / 2.0 / 48 kHz / 192 kbps / |AVO|
Аудио №2: русский / AC3 / 2.0 / 48 kHz / 192 kbps / |VO|
Аудио №3: английский / AC3 / 2.0 / 48 kHz / 384 kbps / |Оригинал|
Аудио №4: английский / AC3 / 2.0 / 48 kHz / 192 kbps / |Комментарии|
Навигация по главам: есть
General
Unique ID : 200411653663197364549999931683751574144 (0x96C5E16868D0D427806F79DD0B9FBA80)
Complete name : F:\Hollywood.Chainsaw.Hookers.1988.720p.BluRay.AC3.mkv
Format : Matroska
Format version : Version 4 / Version 2
File size : 3.89 GiB
Duration : 1 h 14 min
Overall bit rate : 7 459 kb/s
Encoded date : UTC 2017-05-30 04:17:21
Writing application : mkvmerge v8.3.0 ('Over the Horizon') 64bit
Writing library : libebml v1.3.1 + libmatroska v1.4.2
Attachments : poster.jpg

Video
ID : 1
Format : AVC
Format/Info : Advanced Video Codec
Format profile : High@L4.1
Format settings, CABAC : Yes
Format settings, ReFrames : 9 frames
Codec ID : V_MPEG4/ISO/AVC
Duration : 1 h 14 min
Bit rate : 6 500 kb/s
Width : 1 280 pixels
Height : 720 pixels
Display aspect ratio : 16:9
Frame rate mode : Constant
Frame rate : 23.976 (24000/1001) FPS
Color space : YUV
Chroma subsampling : 4:2:0
Bit depth : 8 bits
Scan type : Progressive
Bits/(Pixel*Frame) : 0.294
Stream size : 3.31 GiB (85%)
Writing library : x264 core 148 r2744 b97ae06
Encoding settings : cabac=1 / ref=9 / deblock=1:-3:-3 / analyse=0x3:0x133 / me=umh / subme=10 / psy=1 / psy_rd=1.00:0.50 / mixed_ref=1 / me_range=32 / chroma_me=1 / trellis=2 / 8x8dct=1 / cqm=0 / deadzone=21,11 / fast_pskip=0 / chroma_qp_offset=-4 / threads=6 / lookahead_threads=1 / sliced_threads=0 / nr=0 / decimate=0 / interlaced=0 / bluray_compat=0 / constrained_intra=0 / bframes=10 / b_pyramid=2 / b_adapt=2 / b_bias=0 / direct=3 / weightb=1 / open_gop=0 / weightp=2 / keyint=240 / keyint_min=23 / scenecut=40 / intra_refresh=0 / rc_lookahead=60 / rc=2pass / mbtree=0 / bitrate=6500 / ratetol=1.0 / qcomp=0.65 / qpmin=0 / qpmax=69 / qpstep=4 / cplxblur=20.0 / qblur=0.5 / vbv_maxrate=62500 / vbv_bufsize=78125 / nal_hrd=none / filler=0 / ip_ratio=1.40 / pb_ratio=1.30 / aq=1:1.00
Default : Yes
Forced : No

Audio #1
ID : 2
Format : AC-3
Format/Info : Audio Coding 3
Mode extension : CM (complete main)
Format settings, Endianness : Big
Codec ID : A_AC3
Duration : 1 h 14 min
Bit rate mode : Constant
Bit rate : 192 kb/s
Channel(s) : 2 channels
Channel positions : Front: L R
Sampling rate : 48.0 kHz
Frame rate : 31.250 FPS (1536 spf)
Compression mode : Lossy
Stream size : 102 MiB (3%)
Title : AVO Дольский
Language : Russian
Default : Yes
Forced : No

Audio #2
ID : 3
Format : AC-3
Format/Info : Audio Coding 3
Mode extension : CM (complete main)
Format settings, Endianness : Big
Codec ID : A_AC3
Duration : 1 h 14 min
Bit rate mode : Constant
Bit rate : 192 kb/s
Channel(s) : 2 channels
Channel positions : Front: L R
Sampling rate : 48.0 kHz
Frame rate : 31.250 FPS (1536 spf)
Compression mode : Lossy
Stream size : 102 MiB (3%)
Title : VO Хихикающий доктор
Language : Russian
Default : No
Forced : No

Audio #3
ID : 4
Format : AC-3
Format/Info : Audio Coding 3
Mode extension : CM (complete main)
Format settings, Endianness : Big
Codec ID : A_AC3
Duration : 1 h 14 min
Bit rate mode : Constant
Bit rate : 384 kb/s
Channel(s) : 2 channels
Channel positions : Front: L R
Sampling rate : 48.0 kHz
Frame rate : 31.250 FPS (1536 spf)
Compression mode : Lossy
Stream size : 205 MiB (5%)
Language : English
Default : No
Forced : No

Audio #4
ID : 5
Format : AC-3
Format/Info : Audio Coding 3
Mode extension : CM (complete main)
Format settings, Endianness : Big
Codec ID : A_AC3
Duration : 1 h 14 min
Bit rate mode : Constant
Bit rate : 192 kb/s
Channel(s) : 2 channels
Channel positions : Front: L R
Sampling rate : 48.0 kHz
Frame rate : 31.250 FPS (1536 spf)
Compression mode : Lossy
Stream size : 102 MiB (3%)
Title : Commentary
Language : English
Default : No
Forced : No

Menu
00:00:00.000 : en:00:00:00.000
00:08:17.789 : en:00:08:17.789
00:19:17.323 : en:00:19:17.323
00:27:47.416 : en:00:27:47.416
00:35:17.073 : en:00:35:17.073
00:47:13.831 : en:00:47:13.831
00:57:58.767 : en:00:57:58.767
01:04:54.307 : en:01:04:54.307
piratbit.pw



Скачать Голливудские шлюхи с бензопилами через торрент http://i104.fastpic.ru/big/2018/0723/39/47effcf652eb82f5a154891d84541139.jpg Скачать фильм Голливудские шлюхи с бензопилами через торрент бесплантно в хорошем качестве Описание: Ведя поиски пропавшей девушки, частный детектив выходит на след тайной религиозной секты, состоящей из вооружённых бензопилами ... 9 10 6
Info! Золотая раздача, скачанное не засчитывается.
Торрент: Зарегистрирован [2018-07-23 18:52] · скачан: 78 раз
Статус: √ проверено
Размер: 3.89 GB
Как cкачать? Как скачать Голливудские шлюхи с бензопилами через торрент | UTorrent

28-11-2019 20:33  

Отключить всю рекламу на сайте

23-07-2018 20:06 Голливудские шлюхи с бензопилами Скачать торрент  

Не видел раньше этот фильм,но второй скрин мне понравился piratbit.pw



24-07-2018 14:42 Голливудские шлюхи с бензопилами Скачать торрент  

Скорпион1976 писал(а):

Не видел раньше этот фильм,но второй скрин мне понравился

Мда, тема сисек раскрытаpiratbit.pw



24-07-2018 20:47 Голливудские шлюхи с бензопилами Скачать торрент  

хорошее кино для семейного вечернего просмотра....piratbit.pw



    Дорогой пользователь! Огромная просьба, поблагодарите релизера, оцените раздачу и оставьте свои комментарий, если Вы скачали Голливудские шлюхи с бензопилами через торрент бесплатно! Внесите свою лепту в развитие PiratBit!
    Комментировать посты могут только пользователи прошедшие не сложную регистрацию
    Показать сообщения:    

    Голливудские шлюхи с бензопилами через торрент
    Скачать бесплатно Голливудские шлюхи с бензопилами
    Голливудские шлюхи с бензопилами скачать торрент
    Голливудские шлюхи с бензопилами смотреть онлайн
    Cкачать фильм Голливудские шлюхи с бензопилами бесплатно
    Голливудские шлюхи с бензопилами скачать торрент в хорошем качестве
    Голливудские шлюхи с бензопилами смотреть онлайн бесплатно в хорошем качестве


    Вы не можете начинать темы
    Вы не можете отвечать на сообщения
    Вы не можете редактировать свои сообщения
    Вы не можете удалять свои сообщения
    Вы не можете голосовать в опросах
    Вы не можете прикреплять файлы к сообщениям
    Вы можете скачивать файлы