Ссылка на приватное зеркало всего за 1$. Внимание количество ограничено!!!

iTunes

iTunes

iTunes

1

iTunes

iTunes

iTunes

iTunes

iTunes

30
pack

Новость дня

ВАЖНО

!!Акция!!

Alien_RageХит недели

RePack

Resident Evil 21

ИГРА 18+

pack

RePack

jed

!!Акция!!

Alien_Rage

RePack

fifa19

RePack

Assassins Creed: Odyssey

RePack

NEED FOR SPEED™ PAYBACK

4 сезон

9 сезон

Бесстыжие 9 сезон

Все сериалы

все сериалы на PB.wtf

RePack

FAR CRY 5
  

Апокалипсис начинается / Apocalypse Rising (Ричард Лоури) [2018, фантастика, BDRip] DVO [HiWay Grope] piratbit.pw

Апокалипсис начинается через торрент piratbit.pw

Раздают: 1 [ 0 KB/s ]
Размер: 1.46 GB | Добавлен: 1 год 8 мес. назад | Торрент скачан:434 раза
Скачать  

22-07-2018 15:27 Апокалипсис начинается Скачать торрент  

Апокалипсис начинается / Apocalypse Rising

Год выпуска: 2018
Страна: США
Жанр: фантастика
Продолжительность: 01:23:18
Перевод: Любительский двухголосый [HiWay Grope]
Примечание: Релиз без рекламы!
Режиссер: Ричард Лоури
В ролях:

Джоанна Рэй (Beset), Mason Parker (Child Street Vendor), Джефф Кэйпертон (Thief), Hunter Alexes Parker (Mia), Тед Фергюсон (Zombie Priest), Victoria Steadman (Thora), Shane Samples (Magnum), Джастин Лебрун (Phoenix), Дэвид Намминга (David), Джон Ар Мангус (Major Lee), Dennis Marin (Jesus), Shiah Luna (India)
Описание:
Религия, зомби и пришельцы - всё в одном флаконе. Пришельцы, ведомые рукой единого Господа, прилетают на Землю, дабы предупредить и спасти человечество от катастрофы, которая постигла ранее их собственную планету - нашествия живых мертвецов! И поможет им в этом никто иной как сам Иисус Христос через пророка Мию, также являющейся одной из пришельцев. Теперь им предстоить обьединить силы с человечеством и еще раз сразиться с ужасом, уничтожившим их мир!
Рейтинг:

Качество: BDRip
Формат: AVI
Видео: XviD, 720x304 (2.35:1), 2200 kbps, 23,976 fps, 0,419 bpp
Аудио: AC3 / 2.0 / 48 kHz / 192 kbps /

General
Complete name : F:\Апокалипсис начинается_2018_BDRip.avi
Format : AVI
Format/Info : Audio Video Interleave
File size : 1.46 GiB
Duration : 1 h 23 min
Overall bit rate : 2 501 kb/s
Writing application : VirtualDubMod 1.5.10.2 (build 2542/release)
Writing library : VirtualDubMod build 2542/release

Video
ID : 0
Format : MPEG-4 Visual
Format profile : Advanced Simple@L5
Format settings, BVOP : 1
Format settings, QPel : No
Format settings, GMC : No warppoints
Format settings, Matrix : Custom
Codec ID : XVID
Codec ID/Hint : XviD
Duration : 1 h 23 min
Bit rate : 2 201 kb/s
Width : 720 pixels
Height : 304 pixels
Display aspect ratio : 2.35:1
Frame rate : 23.976 (23976/1000) FPS
Color space : YUV
Chroma subsampling : 4:2:0
Bit depth : 8 bits
Scan type : Progressive
Compression mode : Lossy
Bits/(Pixel*Frame) : 0.419
Stream size : 1.28 GiB (88%)
Writing library : XviD 73

Audio
ID : 1
Format : AC-3
Format/Info : Audio Coding 3
Mode extension : CM (complete main)
Format settings, Endianness : Big
Codec ID : 2000
Duration : 1 h 23 min
Bit rate mode : Constant
Bit rate : 192 kb/s
Channel(s) : 2 channels
Channel positions : Front: L R
Sampling rate : 48.0 kHz
Frame rate : 31.250 FPS (1536 spf)
Compression mode : Lossy
Stream size : 114 MiB (8%)
Alignment : Split accross interleaves
piratbit.pw



Скачать Апокалипсис начинается через торрент https://c.radikal.ru/c12/1807/8c/e8f38d6e9721.jpg Скачать фильм Апокалипсис начинается через торрент бесплантно в хорошем качестве Описание: Религия, зомби и пришельцы - всё в одном флаконе. Пришельцы, ведомые рукой единого Господа, прилетают на Землю, дабы предупредить ... 8.9 10 16
Торрент: Зарегистрирован [2018-07-22 15:27] · скачан: 434 раз
Статус: T временная
Размер: 1.46 GB
Как cкачать? Как скачать Апокалипсис начинается через торрент | qTorrent

% Раздел Тема Автор DL S | L
# Фильмы (мультфильмы) cо спонсором показа (Новинки AVI/MKV) [ 3.97 GB ] Апокалипсис начинается / Apocalypse Rising [2018 BDRip 720p] MVO ["Синема УС"] bober100 Скачать
1 | 0
T Фильмы (мультфильмы) cо спонсором показа (Новинки AVI/MKV) [ 1.37 GB ] Апокалипсис начинается / Apocalypse Rising [2018 HDRip] MVO ["Синема УС"] bober100 Скачать
1 | 0

28-11-2019 20:33  

Отключить всю рекламу на сайте

23-07-2018 01:00 Апокалипсис начинается Скачать торрент  

Что за??piratbit.pw



23-07-2018 10:12 Апокалипсис начинается Скачать торрент  

Это просто ААА! На Blu-Ray сразу конечно. А в роли актеров какие-то порно-актеры. Шедевр точно, рейтинга нет, но оскар должен быть.piratbit.pw



23-07-2018 10:54 Апокалипсис начинается Скачать торрент  

piratbit.pw



31-07-2018 18:19 Апокалипсис начинается Скачать торрент  

ну как такое смотреть??? сплошное piratbit.pw



18-08-2018 09:32 Апокалипсис начинается Скачать торрент  

Если вы телик последний раз году в 90м смотрели-фильм для вас.А так-не пойму,каким нужно быть дебилом,чтобы в этом сняться.piratbit.pw



27-12-2018 21:34 Апокалипсис начинается Скачать торрент  

Чегоооо?!!!! А как бы поступил Иисус?piratbit.pw



06-06-2019 09:55 Апокалипсис начинается Скачать торрент  

нифига вы не понимаете, это в стиле томатос-киллерсpiratbit.pw



    Дорогой пользователь! Огромная просьба, поблагодарите релизера, оцените раздачу и оставьте свои комментарий, если Вы скачали Апокалипсис начинается через торрент бесплатно! Внесите свою лепту в развитие PiratBit!
    Комментировать посты могут только пользователи прошедшие не сложную регистрацию
    Показать сообщения:    

    Апокалипсис начинается через торрент
    Скачать бесплатно Апокалипсис начинается
    Апокалипсис начинается скачать торрент
    Апокалипсис начинается смотреть онлайн
    Cкачать фильм Апокалипсис начинается бесплатно
    Апокалипсис начинается скачать торрент в хорошем качестве
    Апокалипсис начинается смотреть онлайн бесплатно в хорошем качестве


    Вы не можете начинать темы
    Вы не можете отвечать на сообщения
    Вы не можете редактировать свои сообщения
    Вы не можете удалять свои сообщения
    Вы не можете голосовать в опросах
    Вы не можете прикреплять файлы к сообщениям
    Вы можете скачивать файлы