Ссылка на приватное зеркало нашего сайта всего за 1$. Внимание количество ограничено!!!

2 сезон

iTunes

iTunes

1

iTunes

iTunes

iTunes

WEBRip

iTunes

30
pack

Вам бонус

ВАЖНО

!!Акция!!

Alien_RageХит недели

RePack

Horizon Zero Dawn

ИГРА 18+

pack

RePack

jed

!!Акция!!

Alien_Rage

RePack

fifa19

RePack

Assassins Creed: Odyssey

RePack

NEED FOR SPEED™ PAYBACK

4 сезон

9 сезон

Бесстыжие 9 сезон

Все сериалы

все сериалы на PB.wtf

RePack

FAR CRY 5
  

Прощаться не будем (Павел Дроздов) [2018, военный, драма, история, WEB-DL 1080p] [iTunes] piratbit.pw

Прощаться не будем через торрент piratbit.pw

Размер: 4 GB | Добавлен: 2 года 2 мес. назад | Торрент скачан:512 раз
Скачать  

20-07-2018 13:48 Прощаться не будем Скачать торрент  

Прощаться не будем
Год выпуска: 2018
Страна: Россия
Жанр: военный, драма, история
Продолжительность: 01:55:21
Перевод: Не требуется | iTunes
Субтитры: отсутствуют

Режиссер: Павел Дроздов



В ролях:

Андрей Мерзликин, Алена Чехова, Артур Ваха, Анатолий Гущин, Егор Бероев, Юрий Кузнецов, Дагун Омаев, Сергей Горобченко, Родион Долгирев, Анна Чурина

Описание:

Октябрь сорок первого года. Многотысячное немецкое войско наступает на Калинин (ныне Тверь), чтобы, захватив его, открыть себе прямой путь на Москву. На защите города всего две тысячи человек без танков и артиллерии. Единственная надежда задержать врага - эшелоны пятой стрелковой дивизии, которые вот-вот должны пройти через Калининскую станцию. Но диверсанты намерены сделать все, чтобы этого не случилось. Начальник Калининского гарнизона, майор Павел Сысоев, изо всех сил пытаясь сохранить в городе порядок и спокойствие, сам попадает под подозрение в причастности к вражеской диверсионной группе.

Качество: WEB-DL 1080p
Формат: MKV

Видео: MPEG-4 AVC, 1920x802, 4575 Кбит/с
Аудио: Русский (AC3, 6 ch, 384 Кбит/с)
скриншот  скриншот  скриншот  

Общее
Уникальный идентификатор : 206511743875464079578530556685275722904 (0x9B5CB71365DC56B3A89D05C4B2397498)
Полное имя : E:\ProshchatsyaNeBudem1080p.mkv
Формат : Matroska
Версия формата : Version 4 / Version 2
Размер файла : 4,00 Гбайт
Продолжительность : 1 ч. 55 м.
Общий поток : 4961 Кбит/сек
Дата кодирования : UTC 2018-07-20 12:53:49
Программа кодирования : mkvmerge v9.5.0 ('Quiet Fire') 64bit
Библиотека кодирования : libebml v1.3.4 + libmatroska v1.4.5

Видео
Идентификатор : 1
Формат : AVC
Формат/Информация : Advanced Video Codec
Профиль формата : High@L4
Настройки формата : CABAC / 5 Ref Frames
Параметр CABAC формата : Да
Параметр RefFrames формата : 5 кадров
Идентификатор кодека : V_MPEG4/ISO/AVC
Продолжительность : 1 ч. 55 м.
Битрейт : 4575 Кбит/сек
Ширина : 1920 пикселей
Высота : 802 пикселя
Соотношение сторон : 2,40:1
Режим частоты кадров : Постоянный
Частота кадров : 24,000 кадра/сек
Цветовое пространство : YUV
Субдискретизация насыщенности : 4:2:0
Битовая глубина : 8 бит
Тип развёртки : Прогрессивная
Бит/(Пиксели*Кадры) : 0.121
Размер потока : 3,61 Гбайт (90%)
Язык : English
Default : Да
Forced : Нет
Цветовой диапазон : Limited
Основные цвета : BT.709
Характеристики трансфера : BT.709
Коэффициенты матрицы : BT.709

Аудио
Идентификатор : 2
Формат : AC-3
Формат/Информация : Audio Coding 3
Идентификатор кодека : A_AC3
Продолжительность : 1 ч. 55 м.
Вид битрейта : Постоянный
Битрейт : 384 Кбит/сек
Каналы : 6 каналов
Расположение каналов : Front: L C R, Side: L R, LFE
Частота : 48,0 КГц
Частота кадров : 31,250 кадров/сек (1536 SPF)
Битовая глубина : 16 бит
Метод сжатия : С потерями
Размер потока : 317 Мбайт (8%)
Язык : Russian
ServiceKind/String : Complete Main
Default : Да
Forced : Нет

Меню
00:00:00.000 : en:Глава 1
00:07:24.916 : en:Глава 2
00:14:18.624 : en:Глава 3
00:21:54.707 : en:Глава 4
00:29:41.582 : en:Глава 5
00:35:32.582 : en:Глава 6
00:40:23.748 : en:Глава 7
00:45:29.081 : en:Глава 8
00:52:01.497 : en:Глава 9
00:59:00.663 : en:Глава 10
01:07:20.538 : en:Глава 11
01:13:37.704 : en:Глава 12
01:18:24.079 : en:Глава 13
01:27:47.162 : en:Глава 14
01:35:29.120 : en:Глава 15
01:40:38.203 : en:Глава 16
01:47:06.786 : en:Глава 17

piratbit.pw



Скачать Прощаться не будем через торрент http://img11.lostpic.net/2018/06/27/fba1a1d3f12f55f9bf466af68d22402b.jpg Скачать фильм Прощаться не будем через торрент бесплантно в хорошем качестве Описание: Октябрь сорок первого года. Многотысячное немецкое войско наступает на Калинин (ныне Тверь), чтобы, захватив его, открыть себе ... 9.4 10 14
Info! Золотая раздача, скачанное не засчитывается.
Торрент: Зарегистрирован [2018-07-20 13:48] · скачан: 512 раз
Статус: √ проверено
Размер: 4 GB
Как cкачать? Как скачать Прощаться не будем через торрент | qTorrent

% Раздел Тема Автор DL S | L
Наши новые фильмы 2018-2019 [ 1.46 GB ] Прощаться не будем [2018 военный история WEB-DLRip-AVC] bober100 Скачать
2 | 0
Наши новые фильмы 2018-2019 [ 1.46 GB ] Прощаться не будем [2018 военный история WEB-DLRip] bober100 Скачать
3 | 0

28-11-2019 20:33  

Отключить всю рекламу на сайте

    Дорогой пользователь! Огромная просьба, поблагодарите релизера, оцените раздачу и оставьте свои комментарий, если Вы скачали Прощаться не будем через торрент бесплатно! Внесите свою лепту в развитие PiratBit!
    Комментировать посты могут только пользователи прошедшие не сложную регистрацию
    Показать сообщения:    

    Прощаться не будем через торрент
    Скачать бесплатно Прощаться не будем
    Прощаться не будем скачать торрент
    Прощаться не будем смотреть онлайн
    Cкачать фильм Прощаться не будем бесплатно
    Прощаться не будем скачать торрент в хорошем качестве
    Прощаться не будем смотреть онлайн бесплатно в хорошем качестве


    Вы не можете начинать темы
    Вы не можете отвечать на сообщения
    Вы не можете редактировать свои сообщения
    Вы не можете удалять свои сообщения
    Вы не можете голосовать в опросах
    Вы не можете прикреплять файлы к сообщениям
    Вы можете скачивать файлы