1 сезон

1 сезон

iTunes

1

КиноПоиск HD

Кинопоиск HD

iTunes

13

1 сезон

RePack

30

Ultimate

ВАЖНО

ИГРА 18+

pack

RePack

MK11
pack

Легкие деньги

RePack

jed

RePack

fifa19

RePack

RDR2

RePack

NEED FOR SPEED™ PAYBACK

4 сезон

9 сезон

Бесстыжие 9 сезон

Все сериалы

все сериалы на PB.wtf

RePack

FAR CRY 5
  
Magnet ссылка

Жёлтое небо / Yellow Sky (Уильям А. Уэллман) [1948, криминал, вестерн, BDRip 1080p by msltel] AVO piratbit.pw

Жёлтое небо через торрент piratbit.pw

Размер: 10.63 GB | Добавлен: 2 года 9 мес. назад | Торрент скачан:0 раз
Скачать  

19-07-2018 12:08 Жёлтое небо Скачать торрент  

Название: Жёлтое небо
Оригинальное название: Yellow Sky
Год выпуска: 1948
Страна: США
Жанр: криминал, вестерн
Продолжительность: 01:38:47
Перевод: авторский

Режиссер: Уильям А. Уэллман
В ролях: Грегори Пек, Энн Бакстер, Ричард Уидмарк, Роберт Артур, Джон Расселл, Гарри Морган, Джеймс Бартон, Чарльз Кемпер, Уильям Веллман мл., Боб Адлер, Гарри Картер, Уильям Гулд

О фильме: Два года прошло со дня окончания Гражданской войны между Севером и Югом, но из расформированных рядов ветеранов многие не вернулись к праведному труду, а стали сколачивать банды и грабить мирное население. Один из таких «лихих» отрядов, сделав очередной налёт и сорвав куш, уходит от преследования федеральных войск в выжженную солнцем и продуваемую всеми ветрами пустыню. В поисках воды и пищи на грани жизни и смерти они натыкаются на заброшенный город со странным названием «Жёлтое небо». В этом опустошённом мире гангстеры обнаруживают больного старика- старателя и его удивительно красивую внучку Констанс Мэй. Придя в себя от погони, получившие воду и кров, бандиты начинают осматриваться и понимают, что эти двое остались неспроста среди пыльных стен мёртвого города. Всему виной золото, найденное дедом. Решив отобрать золото, шайка готова на всё, но их планам не суждено сбыться. Лидер банды Джеймс Доусон влюбился в красавицу-внучку и не даст теперь в обиду свою девушку, даже если вся банда направит оружие против него...



Качество: BDRip 1080p
Формат: MKV
Видео: MPEG-4 AVC, 12.4 Mбит/с, 1440х1080
Аудио 1: русский, DTS, 1509 kbps, 2 ch, 48 kHz [авторский, Алексей Мндведев]
Аудио 2: английский, DTS, 1509 kbps, 2 ch, 48 kHz [оригинал]
Субтитры: английские
Главы/чаптеры
Общее
Уникальный идентификатор : 242441633119836693211343395465490279234 (0xB6648F62A8A6EAFAA2E148F5BC932B42)
Полное имя : D:\Video\Жёлтое небо.1948.BDRip.1080p by msltel.mkv
Формат : Matroska
Версия формата : Version 4 / Version 2
Размер файла : 10,6 Гбайт
Продолжительность : 1 ч. 38 м.
Общий поток : 15,4 Мбит/сек
Название фильма : Rip by msltel
Дата кодирования : UTC 2018-07-19 04:10:44
Программа кодирования : mkvmerge v8.2.0 ('World of Adventure') 64bit
Библиотека кодирования : libebml v1.3.1 + libmatroska v1.4.2

Видео
Идентификатор : 1
Формат : AVC
Формат/Информация : Advanced Video Codec
Профиль формата : High@L4.1
Настройки формата : CABAC / 4 Ref Frames
Параметр CABAC формата : Да
Параметр RefFrames формата : 4 кадра
Идентификатор кодека : V_MPEG4/ISO/AVC
Продолжительность : 1 ч. 38 м.
Битрейт : 12,4 Мбит/сек
Ширина : 1440 пикселей
Высота : 1080 пикселей
Соотношение сторон : 4:3
Режим частоты кадров : Постоянный
Частота кадров : 23,976 (24000/1001) кадра/сек
Цветовое пространство : YUV
Субдискретизация насыщенности : 4:2:0
Битовая глубина : 8 бит
Тип развёртки : Прогрессивная
Бит/(Пиксели*Кадры) : 0.332
Размер потока : 8,55 Гбайт (80%)
Библиотека кодирования : x264 core 146 r2538 121396c
Настройки программы : cabac=1 / ref=4 / deblock=1:-3:-2 / analyse=0x3:0x113 / me=umh / subme=11 / psy=1 / psy_rd=1.00:0.15 / mixed_ref=1 / me_range=32 / chroma_me=1 / trellis=2 / 8x8dct=1 / cqm=0 / deadzone=21,11 / fast_pskip=0 / chroma_qp_offset=-3 / threads=6 / lookahead_threads=1 / sliced_threads=0 / nr=0 / decimate=1 / interlaced=0 / bluray_compat=0 / constrained_intra=0 / bframes=9 / b_pyramid=2 / b_adapt=2 / b_bias=0 / direct=1 / weightb=1 / open_gop=0 / weightp=2 / keyint=230 / keyint_min=23 / scenecut=40 / intra_refresh=0 / rc_lookahead=40 / rc=crf / mbtree=0 / crf=20.0 / qcomp=0.60 / qpmin=0 / qpmax=69 / qpstep=4 / vbv_maxrate=62500 / vbv_bufsize=78125 / crf_max=0.0 / nal_hrd=none / filler=0 / ip_ratio=1.40 / pb_ratio=1.30 / aq=1:1.00
Язык : English
Default : Да
Forced : Нет

Аудио #1
Идентификатор : 2
Формат : DTS
Формат/Информация : Digital Theater Systems
Идентификатор кодека : A_DTS
Продолжительность : 1 ч. 38 м.
Вид битрейта : Постоянный
Битрейт : 1509 Кбит/сек
Каналы : 2 канала
Расположение каналов : Front: L R
Частота : 48,0 КГц
Частота кадров : 93,750 кадра/сек (512 SPF)
Битовая глубина : 16 бит
Метод сжатия : С потерями
Размер потока : 1,04 Гбайт (10%)
Заголовок : Алексей Мндведев
Язык : Russian
Default : Да
Forced : Нет

Аудио #2
Идентификатор : 3
Формат : DTS
Формат/Информация : Digital Theater Systems
Идентификатор кодека : A_DTS
Продолжительность : 1 ч. 38 м.
Вид битрейта : Постоянный
Битрейт : 1509 Кбит/сек
Каналы : 2 канала
Расположение каналов : Front: L R
Частота : 48,0 КГц
Частота кадров : 93,750 кадра/сек (512 SPF)
Битовая глубина : 16 бит
Метод сжатия : С потерями
Размер потока : 1,04 Гбайт (10%)
Заголовок : original
Язык : English
Default : Нет
Forced : Нет

Текст
Идентификатор : 4
Формат : UTF-8
Идентификатор кодека : S_TEXT/UTF8
Идентификатор кодека/Информация : UTF-8 Plain Text
Продолжительность : 1 ч. 35 м.
Битрейт : 41 бит/сек
ElementCount : 745
Размер потока : 29,5 Кбайт (0%)
Заголовок : английские
Язык : English
Default : Нет
Forced : Нет

Меню
00:00:00.000 : :Chapter 01
00:08:18.998 : :Chapter 02
00:15:02.984 : :Chapter 03
00:24:20.208 : :Chapter 04
00:31:57.665 : :Chapter 05
00:40:30.761 : :Chapter 06
00:48:12.472 : :Chapter 07
00:55:13.143 : :Chapter 08
01:04:00.878 : :Chapter 09
01:12:56.789 : :Chapter 10
01:22:52.175 : :Chapter 11
01:29:50.718 : :Chapter 12
01:38:46.962 : :Chapter 13
piratbit.pw



Скачать Жёлтое небо через торрент https://b.radikal.ru/b12/1807/8c/8050ff3ea5bd.jpg Скачать фильм Жёлтое небо через торрент бесплантно в хорошем качестве О фильме: Два года прошло со дня окончания Гражданской войны между Севером и Югом, но из расформированных рядов ветеранов многие не ... 5 10 1
Info! Золотая раздача, скачанное не засчитывается.
Торрент: Зарегистрирован [2018-07-19 12:08] · скачан: 0 раз
Статус: √ проверено
Размер: 10.63 GB
Как cкачать? Как скачать Жёлтое небо через торрент | UTorrent

% Раздел Тема Автор DL S | L
Фильмы с авторской озвучкой [ 3.78 GB ] Жёлтое небо / Yellow Sky [1948 BDRip 720p by msltel] AVO msltel Скачать
1 | 0

28-11-2019 20:33  

Отключить всю рекламу на сайте

    Дорогой пользователь! Огромная просьба, поблагодарите релизера, оцените раздачу и оставьте свои комментарий, если Вы скачали Жёлтое небо через торрент бесплатно! Внесите свою лепту в развитие PiratBit!
    Комментировать посты могут только пользователи прошедшие не сложную регистрацию
    Показать сообщения:    

    Жёлтое небо через торрент
    Скачать бесплатно Жёлтое небо
    Жёлтое небо скачать торрент
    Жёлтое небо смотреть онлайн
    Cкачать фильм Жёлтое небо бесплатно
    Жёлтое небо скачать торрент в хорошем качестве
    Жёлтое небо смотреть онлайн бесплатно в хорошем качестве


    Вы не можете начинать темы
    Вы не можете отвечать на сообщения
    Вы не можете редактировать свои сообщения
    Вы не можете удалять свои сообщения
    Вы не можете голосовать в опросах
    Вы не можете прикреплять файлы к сообщениям
    Вы можете скачивать файлы