1 сезон

1 сезон

iTunes

1

КиноПоиск HD

Кинопоиск HD

iTunes

13

1 сезон

RePack

30

Новинка

ВАЖНО

ИГРА 18+

pack

RePack

MK11
pack

Легкие деньги

RePack

jed

RePack

fifa19

RePack

RDR2

RePack

NEED FOR SPEED™ PAYBACK

4 сезон

9 сезон

Бесстыжие 9 сезон

Все сериалы

все сериалы на PB.wtf

RePack

FAR CRY 5
  
Magnet ссылка

На износ / Burn Out (Ян Гозлан) [2017, боевик, триллер, BDRip-AVC] AVO [BadBajo] - ExKinoRay piratbit.pw

На износ через торрент piratbit.pw

Размер: 2.08 GB | Добавлен: 2 года 9 мес. назад | Торрент скачан:46 раз
Скачать  

28-06-2018 01:13 На износ Скачать торрент  

Информация о фильме
Название: На износ
Оригинальное название: Burn Out
Год выпуска: 2017
Жанр: Боевик, триллер
Выпущено: Франция, Бельгия, 2425 Films, Wy Productions, Gaumont
Режиссер: Ян Гозлан
В ролях: Мэнон Азем, Франсуа Сивиль, Самуэль Жуи, Нарцисс Мамэ, Оливье Рабурден

Описание: Молодой гонщик по имени Тони не видит жизни без мотоциклетных гонок. Однажды ему выпадает шанс выступать за «Дукати», но для этого ему нужно усердно тренироваться. Но дело усложняет Лейла, бывшая подруга нашего героя, которая попала в переплет. Чтобы вытащить подругу из беды, Тони соглашается поработать на наркоторговцев. От этого всего у Тони идет кругом голова, заставляя его работать буквально на износ.

rating

Продолжительность: 01:43:10
Перевод: Авторский одноголосый (BadBajo)
Субтитры: отсутствуют

Формат: MKV
Качество: BDRip-AVC
Видео: MPEG-4 AVC, 1024x430 (2.40:1), 1985 Kbit/s, 24.000 fps, 0,188 bpp
Звук:
Аудио 1: 48 kHz, AC3, 5.1 ch, 448 Kbps | RUS
Аудио 2: 48 kHz, AC3, 5.1 ch, 448 Kbps | FRA
General
Unique ID : 226544642850830930845335033944506807493 (0xAA6EE9408435360F99B15AEA065AB4C5)
Complete name : D:\Burn Out.2017.AVO.BDRip.AVC.ExKinoRay.mkv
Format : Matroska
Format version : Version 2
File size : 2.08 GiB
Duration : 1 h 43 min
Overall bit rate : 2 881 kb/s
Movie name : Burn Out 2017 from ExKinoRay
Encoded date : UTC 2018-06-27 19:57:43
Writing application : mkvmerge v5.6.0 ('Kenya Kane') built on May 27 2012 16:44:04
Writing library : libebml v1.2.3 + libmatroska v1.3.0

Video
ID : 1
Format : AVC
Format/Info : Advanced Video Codec
Format profile : High@L4.1
Format settings, CABAC : Yes
Format settings, ReFrames : 12 frames
Codec ID : V_MPEG4/ISO/AVC
Duration : 1 h 43 min
Bit rate : 1 985 kb/s
Width : 1 024 pixels
Height : 430 pixels
Display aspect ratio : 2.40:1
Frame rate mode : Constant
Frame rate : 24.000 FPS
Color space : YUV
Chroma subsampling : 4:2:0
Bit depth : 8 bits
Scan type : Progressive
Bits/(Pixel*Frame) : 0.188
Stream size : 1.39 GiB (67%)
Title : Enigma
Writing library : x264 core 152 r2851 ba24899
Encoding settings : cabac=1 / ref=12 / deblock=1:-3:-3 / analyse=0x3:0x113 / me=umh / subme=11 / psy=1 / psy_rd=1.00:0.00 / mixed_ref=1 / me_range=32 / chroma_me=1 / trellis=2 / 8x8dct=1 / cqm=0 / deadzone=21,11 / fast_pskip=0 / chroma_qp_offset=-2 / threads=12 / lookahead_threads=3 / sliced_threads=0 / nr=0 / decimate=0 / interlaced=0 / bluray_compat=0 / constrained_intra=0 / bframes=12 / b_pyramid=2 / b_adapt=2 / b_bias=0 / direct=3 / weightb=1 / open_gop=0 / weightp=2 / keyint=240 / keyint_min=24 / scenecut=40 / intra_refresh=0 / rc_lookahead=40 / rc=2pass / mbtree=0 / bitrate=1985 / ratetol=1.0 / qcomp=0.60 / qpmin=0 / qpmax=51 / qpstep=4 / cplxblur=20.0 / qblur=0.5 / vbv_maxrate=50000 / vbv_bufsize=62500 / nal_hrd=none / filler=0 / ip_ratio=1.30 / pb_ratio=1.20 / aq=3:0.80
Language : English
Default : Yes
Forced : No
Color range : Limited
Color primaries : BT.709
Transfer characteristics : BT.709
Matrix coefficients : BT.709

Audio #1
ID : 2
Format : AC-3
Format/Info : Audio Coding 3
Mode extension : CM (complete main)
Format settings, Endianness : Big
Codec ID : A_AC3
Duration : 1 h 43 min
Bit rate mode : Constant
Bit rate : 448 kb/s
Channel(s) : 6 channels
Channel positions : Front: L C R, Side: L R, LFE
Sampling rate : 48.0 kHz
Frame rate : 31.250 FPS (1536 spf)
Compression mode : Lossy
Stream size : 331 MiB (16%)
Title : AVO (BadBajo)
Language : Russian
Default : Yes
Forced : No

Audio #2
ID : 3
Format : AC-3
Format/Info : Audio Coding 3
Mode extension : CM (complete main)
Format settings, Endianness : Big
Codec ID : A_AC3
Duration : 1 h 43 min
Bit rate mode : Constant
Bit rate : 448 kb/s
Channel(s) : 6 channels
Channel positions : Front: L C R, Side: L R, LFE
Sampling rate : 48.0 kHz
Frame rate : 31.250 FPS (1536 spf)
Compression mode : Lossy
Stream size : 331 MiB (16%)
Language : French
Default : No
Forced : No

Menu
00:00:00.000 : en:01
00:08:41.625 : en:02
00:17:58.208 : en:03
00:26:29.958 : en:04
00:35:14.875 : en:05
00:44:31.666 : en:06
00:53:10.833 : en:07
01:00:57.458 : en:08
01:10:23.375 : en:09
01:21:10.500 : en:10
01:31:20.708 : en:11
01:38:29.041 : en:12
Релиз от:

Автор релиза: piratbit.pw



Скачать На износ через торрент http://c.radikal.ru/c41/1806/d9/d09c837a4ba1.png Скачать фильм На износ через торрент бесплантно в хорошем качестве Описание: Молодой гонщик по имени Тони не видит жизни без мотоциклетных гонок. Однажды ему выпадает шанс выступать за «Дукати», но для ... 10 10 1
Info! Золотая раздача, скачанное не засчитывается.
Торрент: Зарегистрирован [2018-06-28 01:13] · скачан: 46 раз
Статус: √ проверено
Размер: 2.08 GB
Как cкачать? Как скачать На износ через торрент | UTorrent

% Раздел Тема Автор DL S | L
Фильмы с авторской озвучкой [ 1.45 GB ] На износ / Burn Out [2017 BDRip] AVO [BadBajo] - ExKinoRay Enigma2010 Скачать
1 | 0

28-11-2019 20:33  

Отключить всю рекламу на сайте

    Дорогой пользователь! Огромная просьба, поблагодарите релизера, оцените раздачу и оставьте свои комментарий, если Вы скачали На износ через торрент бесплатно! Внесите свою лепту в развитие PiratBit!
    Комментировать посты могут только пользователи прошедшие не сложную регистрацию
    Показать сообщения:    

    На износ через торрент
    Скачать бесплатно На износ
    На износ скачать торрент
    На износ смотреть онлайн
    Cкачать фильм На износ бесплатно
    На износ скачать торрент в хорошем качестве
    На износ смотреть онлайн бесплатно в хорошем качестве


    Вы не можете начинать темы
    Вы не можете отвечать на сообщения
    Вы не можете редактировать свои сообщения
    Вы не можете удалять свои сообщения
    Вы не можете голосовать в опросах
    Вы не можете прикреплять файлы к сообщениям
    Вы можете скачивать файлы