Ссылка на приватное зеркало нашего сайта всего за 1$. Внимание количество ограничено!!!

2 сезон

iTunes

iTunes

1

iTunes

iTunes

iTunes

WEBRip

iTunes

30
pack

Новость дня

ВАЖНО

!!Акция!!

Alien_RageХит недели

RePack

Horizon Zero Dawn

ИГРА 18+

pack

RePack

jed

!!Акция!!

Alien_Rage

RePack

fifa19

RePack

Assassins Creed: Odyssey

RePack

NEED FOR SPEED™ PAYBACK

4 сезон

9 сезон

Бесстыжие 9 сезон

Все сериалы

все сериалы на PB.wtf

RePack

FAR CRY 5
  

Zомбоящик (Константин Смирнов) [2018, комедия, WEB-DL 720p] [iTunes] piratbit.pw

Zомбоящик через торрент piratbit.pw

Раздают: 1 [ 0 KB/s ]
Размер: 1.83 GB | Добавлен: 2 года 3 мес. назад | Торрент скачан:457 раз
Скачать  

07-06-2018 05:53 Zомбоящик Скачать торрент  

Zомбоящик
Год выпуска: 2018
Страна: Россия
Жанр: комедия
Продолжительность: 00:59:19
Перевод: Не требуется | iTunes
Субтитры: отсутствуют

Режиссер: Константин Смирнов



В ролях:

Гарик Харламов, Тимур Батрутдинов, Гарик Мартиросян, Павел Воля, Вадим Галыгин, Андрей Скороход, Александр Ревва, Роман Юнусов, Андрей Молочный, Антон Лирник

Описание:

Во времена Шекспира весь мир был театром, в наши же дни его захватил зомбоящик. 30 звезд ТНТ. Все жанры: драма, комедия, боевик, триллер, научная фантастика, байопик, эротика и экспериментальное кино. От бессмысленного и беспощадного стеба не скроется никто: ни футболисты, ни геи, ни чиновники, ни священники, ни расисты, ни онанисты! Герои «Zомбоящика» интригуют, дразнят, издеваются и смеются вместе со зрителями, доказывая, что вся наша жизнь и есть «Zомбоящик».

Качество: WEB-DL 720p
Формат: MKV

Видео: MPEG-4 AVC, 4020 Кбит/с, 960x720@1280x720
Аудио: Русский (AC3, 6 ch, 384 Кбит/с)
скриншот   скриншот   скриншот  

Общее
Уникальный идентификатор : 238152750379963402315610504748076938315 (0xB32A8D23EE066BE594F451C39D1CB44B)
Полное имя : F:\Zомбоящик.2O18.O.WeB-DL.72Op.mkv
Формат : Matroska
Версия формата : Version 2
Размер файла : 1,83 Гбайт
Продолжительность : 59 м. 19 с.
Общий поток : 4406 Кбит/сек
Дата кодирования : UTC 2018-06-06 19:09:42
Программа кодирования : mkvmerge v8.3.0 ('Over the Horizon') 64bit
Библиотека кодирования : libebml v1.3.1 + libmatroska v1.4.2

Видео
Идентификатор : 1
Формат : AVC
Формат/Информация : Advanced Video Codec
Профиль формата : Main@L3.1
Параметр CABAC формата : Нет
Параметр RefFrames формата : 2 кадра
Идентификатор кодека : V_MPEG4/ISO/AVC
Продолжительность : 59 м. 19 с.
Битрейт : 4020 Кбит/сек
Ширина : 960 пикселей
Высота : 720 пикселей
Соотношение сторон : 16:9
Режим частоты кадров : Постоянный
Частота кадров : 25,000 кадров/сек
Цветовое пространство : YUV
Субдискретизация насыщенности : 4:2:0
Битовая глубина : 8 бит
Тип развёртки : Прогрессивная
Бит/(Пиксели*Кадры) : 0.228
Размер потока : 1,63 Гбайт (89%)
Язык : English
Default : Да
Forced : Нет
Цветовой диапазон : Limited
Основные цвета : BT.709
Характеристики трансфера : BT.709
Коэффициенты матрицы : BT.709

Аудио
Идентификатор : 2
Формат : AC-3
Формат/Информация : Audio Coding 3
Расширение режима : CM (complete main)
Параметр Endianness формата : Big
Идентификатор кодека : A_AC3
Продолжительность : 59 м. 19 с.
Вид битрейта : Постоянный
Битрейт : 384 Кбит/сек
Каналы : 6 каналов
Расположение каналов : Front: L C R, Side: L R, LFE
Частота : 48,0 КГц
Частота кадров : 31,250 кадров/сек (1536 spf)
Метод сжатия : С потерями
Размер потока : 163 Мбайт (9%)
Язык : Russian
Default : Да
Forced : Нет

piratbit.pw



Скачать Zомбоящик через торрент http://img12.lostpic.net/2018/06/07/c2f2afb2a8b19b980aa2bb5fe1faabe1.png Скачать фильм Zомбоящик через торрент бесплантно в хорошем качестве Описание:Во времена Шекспира весь мир был театром, в наши же дни его захватил зомбоящик. 30 звезд ТНТ. Все жанры: драма, комедия, боевик, ... 8 10 19
Торрент: Зарегистрирован [2018-06-07 05:53] · скачан: 457 раз
Статус: √ проверено
Размер: 1.83 GB
Как cкачать? Как скачать Zомбоящик через торрент | qTorrent

% Раздел Тема Автор DL S | L
Наши новые фильмы 2018-2019 [ 747 MB ] Zомбоящик [2018 WEB-DLRip-AVC] bober100 Скачать
1 | 0
Наши фильмы (HD, WEB-DL 720p, 1080p) [ 2.3 GB ] Zомбоящик [2018 WEB-DL 1080p] bober100 Скачать
1 | 0
Наши новые фильмы 2018-2019 [ 707 MB ] Zомбоящик [2018 WEB-DLRip ] coc900 Скачать
1 | 0
Наши новые фильмы 2018-2019 [ 1.37 GB ] Zомбоящик [2018 WEB-DLRip] bober100 Скачать
1 | 0

28-11-2019 20:33  

Отключить всю рекламу на сайте

    Дорогой пользователь! Огромная просьба, поблагодарите релизера, оцените раздачу и оставьте свои комментарий, если Вы скачали Zомбоящик через торрент бесплатно! Внесите свою лепту в развитие PiratBit!
    Комментировать посты могут только пользователи прошедшие не сложную регистрацию
    Показать сообщения:    

    Zомбоящик через торрент
    Скачать бесплатно Zомбоящик
    Zомбоящик скачать торрент
    Zомбоящик смотреть онлайн
    Cкачать фильм Zомбоящик бесплатно
    Zомбоящик скачать торрент в хорошем качестве
    Zомбоящик смотреть онлайн бесплатно в хорошем качестве


    Вы не можете начинать темы
    Вы не можете отвечать на сообщения
    Вы не можете редактировать свои сообщения
    Вы не можете удалять свои сообщения
    Вы не можете голосовать в опросах
    Вы не можете прикреплять файлы к сообщениям
    Вы можете скачивать файлы