1 сезон

1 сезон

iTunes

1

КиноПоиск HD

Кинопоиск HD

iTunes

13

1 сезон

RePack

30

Новинка

ВАЖНО

ИГРА 18+

pack

RePack

MK11
pack

Легкие деньги

RePack

jed

RePack

fifa19

RePack

RDR2

RePack

NEED FOR SPEED™ PAYBACK

4 сезон

9 сезон

Бесстыжие 9 сезон

Все сериалы

все сериалы на PB.wtf

RePack

FAR CRY 5
  
Magnet ссылка

Невидимка / In Darkness (Энтони Бирн) [2018, триллер, WEB-DLRip-AVC] AVO [BadBajo] - ExKinoRay piratbit.pw

Невидимка через торрент piratbit.pw

Размер: 1.75 GB | Добавлен: 2 года 10 мес. назад | Торрент скачан:126 раз
Скачать  

27-05-2018 01:29 Невидимка Скачать торрент  

Информация о фильме
Название: Невидимка
Оригинальное название: In Darkness
Год выхода: 2018
Жанр: Триллер
Режиссер: Энтони Бирн
В ролях: Натали Дормер, Эмили Ратаковски, Эд Скрейн, Джоэли Ричардсон, Джеймс Космо, Нил Мэскелл, Эмбер Андерсон, Ян Бейвут, Бернард Коллако

Описание:
«Девушка в темноте», как называют слепую Софию, становится невольным свидетелем убийства дочери опасного международного преступника. Но несмотря на слепоту, София не так беззащитна, как считают мафия и спецслужбы.

rating

Страна: Великобритания, США
Студия: 42
Продолжительность: 01:41:12
Перевод: Авторский (одноголосый, закадровый) - А.Важенин (BadBajo)

БЕЗ КАКОЙ-ЛИБО РЕКЛАМЫ!

Формат: MKV
Качество: WEB-DLRip-AVC (исх.In.Darkness.2018.1080p.WEB-DL.DD5.1.H264-FGT)
Видео: MPEG-4 AVC, 1024x426 (2.40:1), 23.976 fps, 1640 Kbps, 0.157 bit/pixel
Аудио #01: 48 kHz, AC3, 5.1, 448 Kbps | RUS |
Аудио #02: 48 kHz, AC3, 5.1, 384 Kbps | Оригинал | ENG |
General
Unique ID : 195723147953316811877342018753136318788 (0x933EE83AACAF771E89BFBB8A49AA5944)
Complete name : D:\In.Darkness.2018.AVO.BadBajo.WEB-DLRip.AVC.ExKinoRay.mkv
Format : Matroska
Format version : Version 2
File size : 1.75 GiB
Duration : 1 h 41 min
Overall bit rate : 2 473 kb/s
Movie name : In Darkness 2018 from ExKinoRay
Encoded date : UTC 2018-05-26 14:26:07
Writing application : mkvmerge v5.6.0 ('Kenya Kane') built on May 27 2012 16:44:04
Writing library : libebml v1.2.3 + libmatroska v1.3.0

Video
ID : 1
Format : AVC
Format/Info : Advanced Video Codec
Format profile : High@L4.1
Format settings, CABAC : Yes
Format settings, ReFrames : 12 frames
Codec ID : V_MPEG4/ISO/AVC
Duration : 1 h 41 min
Bit rate : 1 640 kb/s
Width : 1 024 pixels
Height : 426 pixels
Display aspect ratio : 2.40:1
Frame rate mode : Constant
Frame rate : 23.976 (23976/1000) FPS
Color space : YUV
Chroma subsampling : 4:2:0
Bit depth : 8 bits
Scan type : Progressive
Bits/(Pixel*Frame) : 0.157
Stream size : 1.13 GiB (64%)
Title : Enigma
Writing library : x264 core 152 r2851 ba24899
Encoding settings : cabac=1 / ref=12 / deblock=1:-2:-2 / analyse=0x3:0x113 / me=umh / subme=10 / psy=1 / psy_rd=1.05:0.10 / mixed_ref=1 / me_range=32 / chroma_me=1 / trellis=2 / 8x8dct=1 / cqm=0 / deadzone=21,11 / fast_pskip=0 / chroma_qp_offset=-3 / threads=12 / lookahead_threads=3 / sliced_threads=0 / nr=0 / decimate=0 / interlaced=0 / bluray_compat=0 / constrained_intra=0 / bframes=12 / b_pyramid=2 / b_adapt=2 / b_bias=0 / direct=3 / weightb=1 / open_gop=0 / weightp=2 / keyint=240 / keyint_min=23 / scenecut=40 / intra_refresh=0 / rc_lookahead=40 / rc=2pass / mbtree=0 / bitrate=1640 / ratetol=1.0 / qcomp=0.60 / qpmin=0 / qpmax=51 / qpstep=4 / cplxblur=20.0 / qblur=0.5 / vbv_maxrate=50000 / vbv_bufsize=62500 / nal_hrd=none / filler=0 / ip_ratio=1.40 / pb_ratio=1.30 / aq=1:1.00
Language : English
Default : Yes
Forced : No
Color range : Limited
Color primaries : BT.709
Transfer characteristics : BT.709
Matrix coefficients : BT.709

Audio #1
ID : 2
Format : AC-3
Format/Info : Audio Coding 3
Mode extension : CM (complete main)
Format settings, Endianness : Big
Codec ID : A_AC3
Duration : 1 h 41 min
Bit rate mode : Constant
Bit rate : 448 kb/s
Channel(s) : 6 channels
Channel positions : Front: L C R, Side: L R, LFE
Sampling rate : 48.0 kHz
Frame rate : 31.250 FPS (1536 spf)
Compression mode : Lossy
Stream size : 324 MiB (18%)
Title : AVO (BadBajo)
Language : Russian
Default : Yes
Forced : No

Audio #2
ID : 3
Format : AC-3
Format/Info : Audio Coding 3
Mode extension : CM (complete main)
Format settings, Endianness : Big
Codec ID : A_AC3
Duration : 1 h 41 min
Bit rate mode : Constant
Bit rate : 384 kb/s
Channel(s) : 6 channels
Channel positions : Front: L C R, Side: L R, LFE
Sampling rate : 48.0 kHz
Frame rate : 31.250 FPS (1536 spf)
Compression mode : Lossy
Stream size : 278 MiB (16%)
Language : English
Default : No
Forced : No

Text
ID : 4
Format : UTF-8
Codec ID : S_TEXT/UTF8
Codec ID/Info : UTF-8 Plain Text
Language : English
Default : No
Forced : No

Menu
00:00:00.000 : en:1
00:06:39.000 : en:2
00:13:57.000 : en:3
00:20:44.000 : en:4
00:27:19.000 : en:5
00:33:39.000 : en:6
00:40:12.000 : en:7
00:46:16.000 : en:8
00:54:04.000 : en:9
01:00:00.000 : en:10
01:06:11.000 : en:11
01:13:39.000 : en:12
01:21:07.000 : en:13
01:26:32.000 : en:14
01:33:55.000 : en:15
01:38:09.000 : en:16
Релиз от:

Автор релиза: piratbit.pw



Скачать Невидимка через торрент https://b.radikal.ru/b06/1805/39/1024f73b9d05.jpg Скачать фильм Невидимка через торрент бесплантно в хорошем качестве Описание:«Девушка в темноте», как называют слепую Софию, становится невольным свидетелем убийства дочери опасного международного ... 10 10 5
Info! Золотая раздача, скачанное не засчитывается.
Торрент: Зарегистрирован [2018-05-27 01:29] · скачан: 126 раз
Статус: √ проверено
Размер: 1.75 GB
Как cкачать? Как скачать Невидимка через торрент | UTorrent

% Раздел Тема Автор DL S | L
Фильмы 2018 [DVDrip, WEB-DLRip, HDrip] (DUB, MVO) [ 1.67 GB ] Невидимка / In Darkness [2018 BDRip-AVC] Dub - ExKinoRay Enigma2010 Скачать
1 | 0
Фильмы с авторской озвучкой [ 1.86 GB ] Невидимка / In Darkness [2018 WEB-DLRip] AVO [BadBajo] - ExKinoRay Enigma2010 Скачать
1 | 0

28-11-2019 20:33  

Отключить всю рекламу на сайте

    Дорогой пользователь! Огромная просьба, поблагодарите релизера, оцените раздачу и оставьте свои комментарий, если Вы скачали Невидимка через торрент бесплатно! Внесите свою лепту в развитие PiratBit!
    Комментировать посты могут только пользователи прошедшие не сложную регистрацию
    Показать сообщения:    

    Невидимка через торрент
    Скачать бесплатно Невидимка
    Невидимка скачать торрент
    Невидимка смотреть онлайн
    Cкачать фильм Невидимка бесплатно
    Невидимка скачать торрент в хорошем качестве
    Невидимка смотреть онлайн бесплатно в хорошем качестве


    Вы не можете начинать темы
    Вы не можете отвечать на сообщения
    Вы не можете редактировать свои сообщения
    Вы не можете удалять свои сообщения
    Вы не можете голосовать в опросах
    Вы не можете прикреплять файлы к сообщениям
    Вы можете скачивать файлы