Ссылка на приватное зеркало нашего сайта всего за 1$. Внимание количество ограничено!!!

2 сезон

iTunes

iTunes

1

iTunes

iTunes

iTunes

WEBRip

iTunes

30
pack

Новость дня

ВАЖНО

!!Акция!!

Alien_RageХит недели

RePack

Horizon Zero Dawn

ИГРА 18+

pack

RePack

jed

!!Акция!!

Alien_Rage

RePack

fifa19

RePack

Assassins Creed: Odyssey

RePack

NEED FOR SPEED™ PAYBACK

4 сезон

9 сезон

Бесстыжие 9 сезон

Все сериалы

все сериалы на PB.wtf

RePack

FAR CRY 5
  

Самка (Григорий Константинопольский) [2011, Комедия, WEB-DLRip 1080р] piratbit.pw

Самка через торрент piratbit.pw

Размер: 1.17 GB | Добавлен: 2 года 3 мес. назад | Торрент скачан:83 раза
Скачать  

23-05-2018 19:34 Самка Скачать торрент  

Самка
Год выпуска: 2011
Производство: Россия
Жанр: Комедия
Продолжительность: 01:14:47
Режиссер: Григорий Константинопольский
Субтитры: Отсутствуют

Актеры: Екатерина Вилкова, Александр Стриженов, Кристина Бабушкина, Павел Деревянко, Юрий Колокольников, Константин Мурзенко, Светлана Бельская и др.

Описание:
«О, Боже!!!!… Невероятно!!!… Я верила — Снежный Человек существует. Он есть!!!… Он похитил меня!!! Он добрый!!!… Мы идем знакомиться с его родителями!!!… Мне кажется, я ему нравлюсь. Ваня — дай грибочков!!!» — вот так начинается необычайный видеорепортаж, записанный на камеру, которую случайно нашли в лесу охотники. Что это — сенсация??? Русский Кинг-Конг??? А может быть пронзительная история любви??? Полгода назад, где-то на Урале, в тайге, пропала тележурналистка Лариса Дебомонова. Где она — никому не известно.

Возраст: 16+ (зрителям, достигшим 16 лет)

Качество видео: WEB-DLRip 1080р

Видео: AVC/H.264, 1920x1080 (16:9), ~2051 Kbps
Аудио: AC3, 2 ch, 192 Kbps
Общее
Уникальный идентификатор : 193264789837137628541385731514621221420 (0x916571D0EEAFA9488C23CA78A37FDA2C)
Полное имя : D:\Самка (2011).mkv
Формат : Matroska
Версия формата : Version 4 / Version 2
Размер файла : 1,17 Гбайт
Продолжительность : 1 ч. 14 м.
Общий поток : 2245 Кбит/сек
Дата кодирования : UTC 2017-03-23 16:49:16
Программа кодирования : mkvmerge v9.9.0 ('Pick Up') 64bit
Библиотека кодирования : libebml v1.3.4 + libmatroska v1.4.5 / Lavf57.25.100

Видео
Идентификатор : 1
Формат : AVC
Формат/Информация : Advanced Video Codec
Профиль формата : High@L4
Параметр CABAC формата : Да
Параметр ReFrames формата : 3 кадра
Идентификатор кодека : V_MPEG4/ISO/AVC
Продолжительность : 1 ч. 14 м.
Битрейт : 2051 Кбит/сек
Ширина : 1920 пикселей
Высота : 1080 пикселей
Соотношение сторон : 16:9
Режим частоты кадров : Постоянный
Частота кадров : 25,000 кадров/сек
Цветовое пространство : YUV
Субдискретизация насыщенности : 4:2:0
Битовая глубина : 8 бит
Тип развёртки : Прогрессивная
Бит/(Пиксели*Кадры) : 0.040
Размер потока : 1,07 Гбайт (91%)
Default : Да
Forced : Нет
Цветовой диапазон : Limited
Основные цвета : BT.709
Характеристики трансфера : BT.709
Коэффициенты матрицы : BT.709

Аудио
Идентификатор : 2
Формат : AC-3
Формат/Информация : Audio Coding 3
Параметр Endianness формата : Big
Идентификатор кодека : A_AC3
Продолжительность : 1 ч. 14 м.
Вид битрейта : Постоянный
Битрейт : 192 Кбит/сек
Каналы : 2 канала
Расположение каналов : Front: L R
Частота : 44,1 КГц
Частота кадров : 28,711 кадров/сек (1536 spf)
Битовая глубина : 16 бит
Метод сжатия : С потерями
Задержка видео : -40 мс.
Размер потока : 103 Мбайт (9%)
ServiceKind/String : Complete Main
Default : Да
Forced : Нет

скриншот   скриншот   скриншот   скриншот  
piratbit.pw



Скачать Самка через торрент http://i105.fastpic.ru/big/2018/0523/e3/989e77bbe05d75abcf150c218711cde3.jpg Скачать фильм Самка через торрент бесплантно в хорошем качестве Описание:«О, Боже!!!!… Невероятно!!!… Я верила — Снежный Человек существует. Он есть!!!… Он похитил меня!!! Он добрый!!!… Мы идем ... 10 10 4
Торрент: Зарегистрирован [2018-05-23 19:34] · скачан: 83 раз
Статус: √ проверено
Размер: 1.17 GB
Как cкачать? Как скачать Самка через торрент | qTorrent

% Раздел Тема Автор DL S | L
Лесбиянки [ 1.82 GB ] Alpha Female 2 / Доминирующая самка 2 [2019 18+ TeensFemale DominationMatureOld & Young FemalesSex ToyOral WEB-DL540p] Venom Скачать
1 | 0
Гонзо [ 2.05 GB ] Самцы и Самки 2 / Stags And Vixens 2 [2018 All Sex Oral Gonzo Facial Couples Hotwife Wives WEB-DLRip] sheker187 Скачать
1 | 0
Гонзо [ 3.13 GB ] Самки / The Female Of The Species [2018 All Sex Oral Female Domination Porn Stars WEB-DLRip 480p] Split Scenes sheker187 Скачать
1 | 0
Наши фильмы 2010-2011 [ 1.36 GB ] Самка [2011 DVDRip лицензия] SD Скачать
1 | 1
Разное [ 581 MB ] Соблазнительные самки [2009 Threesome lesbians HDTV] Anonymous Скачать
1 | 0
Гонзо [ 1.19 GB ] Джесси: Альфа-Самка / Jesse: Alpha Female [2015 All Sex Oral Gonzo BigTits Porn Stars Hardcore Fetish Bondage Domination WEB-DL 480p] sheker187 Скачать
1 | 0
T Фильмы (WEB-DL 720p, 1080p) [ 2.62 GB ] Самки / Alpha Girls: A Satanic Sorority Slasher [2013 WEB-DLRip 720p Любительский двухголосый] Drue Скачать
1 | 0

28-11-2019 20:33  

Отключить всю рекламу на сайте

23-05-2018 20:09 Самка Скачать торрент  

аахааха что это такое?! ахах piratbit.pw



24-05-2018 09:02 Самка Скачать торрент  

По описанию комедия piratbit.pw



    Дорогой пользователь! Огромная просьба, поблагодарите релизера, оцените раздачу и оставьте свои комментарий, если Вы скачали Самка через торрент бесплатно! Внесите свою лепту в развитие PiratBit!
    Комментировать посты могут только пользователи прошедшие не сложную регистрацию
    Показать сообщения:    

    Самка через торрент
    Скачать бесплатно Самка
    Самка скачать торрент
    Самка смотреть онлайн
    Cкачать фильм Самка бесплатно
    Самка скачать торрент в хорошем качестве
    Самка смотреть онлайн бесплатно в хорошем качестве


    Вы не можете начинать темы
    Вы не можете отвечать на сообщения
    Вы не можете редактировать свои сообщения
    Вы не можете удалять свои сообщения
    Вы не можете голосовать в опросах
    Вы не можете прикреплять файлы к сообщениям
    Вы можете скачивать файлы