Marvel's Avengers Deluxe Edition (супер цена) 159р. Внимание количество ограничено!!!

2 сезон

iTunes

iTunes

1

iTunes

iTunes

iTunes

WEBRip

iTunes

30
pack

Новость дня

ВАЖНО

!!Акция!!

Alien_RageХит недели

RePack

Horizon Zero Dawn

ИГРА 18+

pack

RePack

jed

!!Акция!!

Alien_Rage

RePack

fifa19

RePack

Assassins Creed: Odyssey

RePack

NEED FOR SPEED™ PAYBACK

4 сезон

9 сезон

Бесстыжие 9 сезон

Все сериалы

все сериалы на PB.wtf

RePack

FAR CRY 5
  

Гоголь. Вий (Егор Баранов) [2018, детектив, приключения, драма, WEB-DL 1080p] [iTunes] piratbit.pw

Гоголь. Вий через торрент piratbit.pw

Раздают: 1 [ 0 KB/s ]
Размер: 3.4 GB | Добавлен: 2 года 3 мес. назад | Торрент скачан:4102 раза
Скачать  

21-05-2018 18:43 Гоголь. Вий Скачать торрент  

Гоголь. Вий
Год выпуска: 2018
Страна: Россия
Жанр: детектив, приключения, драма
Продолжительность: 01:39:03
Перевод: Не требуется | iTunes
Субтитры: отсутствуют

Режиссер: Егор Баранов

rating

В ролях:

Александр Петров, Олег Меньшиков, Евгений Стычкин, Таисия Вилкова, Артем Ткаченко, Екатерина Бурлакова, Сергей Бадюк, Ян Цапник, Алексей Вертков, Марта Тимофеева

Описание:

Писарь из Санкт-Петербурга Николай Гоголь бросает вызов загадочному тёмному Всаднику, который жестоко расправляется с девушками в окрестностях села Диканька. Собрав команду из местного полицейского, пьяницы-доктора, суеверного кузнеца и странствующего философа-экзорциста, Гоголь пытается заманить злодея в ловушку, но на его пути встает самое жуткое порождение нечистой силы - Вий, один взгляд которого способен высосать душу смертного. Неожиданно для себя Гоголь выясняет, что с потусторонними силами его связывают не только таинственные видения.

Качество: WEB-DL 1080p
Формат: MKV

Видео: MPEG-4 AVC, 1920x804, 4526 Kbit/s, 23.976 fps
Аудио: 48 kHz, AC3, 5.1, 384 Kbps | iTunes | RUS |
скриншот  
скриншот   скриншот   скриншот   скриншот   скриншот  

General
Unique ID : 117154622798675822946989824228659970230 (0x582328DCAB2B9193CFE44703DBA240B6)
Complete name : C:Video111Gogol.Viy.WEB-DL.1080p.ExKinoRay.mkv
Format : Matroska
Format version : Version 4 / Version 2
File size : 3.40 GiB
Duration : 1 h 39 min
Overall bit rate : 4 912 kb/s
Movie name : Гоголь Вий from ExKinoRay
Encoded date : UTC 2018-05-21 18:16:05
Writing application : mkvmerge v22.0.0 ('At The End Of The World') 64-bit
Writing library : libebml v1.3.5 + libmatroska v1.4.8

Video
ID : 1
Format : AVC
Format/Info : Advanced Video Codec
Format profile : High@L4
Format settings : CABAC / 5 Ref Frames
Format settings, CABAC : Yes
Format settings, ReFrames : 5 frames
Codec ID : V_MPEG4/ISO/AVC
Duration : 1 h 39 min
Bit rate : 4 526 kb/s
Width : 1 920 pixels
Height : 804 pixels
Display aspect ratio : 2.40:1
Frame rate mode : Constant
Frame rate : 24.000 FPS
Color space : YUV
Chroma subsampling : 4:2:0
Bit depth : 8 bits
Scan type : Progressive
Bits/(Pixel*Frame) : 0.122
Stream size : 3.13 GiB (92%)
Language : Russian
Default : Yes
Forced : No
Color range : Limited
Color primaries : BT.709
Transfer characteristics : BT.709
Matrix coefficients : BT.709

Audio
ID : 2
Format : AC-3
Format/Info : Audio Coding 3
Codec ID : A_AC3
Duration : 1 h 39 min
Bit rate mode : Constant
Bit rate : 384 kb/s
Channel(s) : 6 channels
Channel positions : Front: L C R, Side: L R, LFE
Sampling rate : 48.0 kHz
Frame rate : 31.250 FPS (1536 SPF)
Bit depth : 16 bits
Compression mode : Lossy
Delay relative to video : -42 ms
Stream size : 272 MiB (8%)
Language : Russian
Service kind : Complete Main
Default : Yes
Forced : Yes

Menu
00:00:00.000 : en:Глава 1
00:07:29.000 : en:Глава 2
00:12:22.790 : en:Глава 3
00:20:44.455 : en:Глава 4
00:24:45.205 : en:Глава 5
00:30:02.620 : en:Глава 6
00:35:28.369 : en:Глава 7
00:41:36.952 : en:Глава 8
00:47:22.660 : en:Глава 9
00:52:11.243 : en:Глава 10
00:58:36.493 : en:Глава 11
01:05:09.993 : en:Глава 12
01:10:35.076 : en:Глава 13
01:15:23.908 : en:Глава 14
01:21:01.408 : en:Глава 15
01:27:35.283 : en:Глава 16

piratbit.pw



Скачать Гоголь. Вий через торрент http://pic1.kartinco.top/images/11/nvbsx.jpg Скачать фильм Гоголь. Вий через торрент бесплантно в хорошем качестве Описание: Писарь из Санкт-Петербурга Николай Гоголь бросает вызов загадочному тёмному Всаднику, который жестоко расправляется с девушками в ... 9.8 10 65
Info! Золотая раздача, скачанное не засчитывается.
Торрент: Зарегистрирован [2018-05-21 18:43] · скачан: 4 102 раз
Статус: √ проверено
Размер: 3.4 GB
Как cкачать? Как скачать Гоголь. Вий через торрент | qTorrent

% Раздел Тема Автор DL S | L
Наши новые фильмы 2018-2019 [ 1.5 GB ] Гоголь. Вий [2018 BDRip-AVC] [Русский] [] - ExKinoRay Enigma2010 Скачать
1 | 0
Наши фильмы (Blu-ray, BD-Remux, HDDVD) [ 20.25 GB ] Гоголь. Вий [2018 BD Remux 1080p] [] bober100 Скачать
1 | 0
Наши новые фильмы 2018-2019 [ 1.46 GB ] Гоголь. Вий [2018 BDRip] [Русский] [] Twi7ter Скачать
2 | 0
Наши фильмы (HD, WEB-DL 720p, 1080p) [ 8.42 GB ] Гоголь. Вий [2018 BDRip 1080p] [] bober100 Скачать
1 | 0
Наши новые фильмы 2018-2019 [ 745 MB ] Гоголь. Вий [2018 HDRip] [] bober100 Скачать
1 | 0
Наши фильмы (HD, WEB-DL 720p, 1080p) [ 4.95 GB ] Гоголь. Вий [2018 BDRip 720p] [] bober100 Скачать
1 | 0
Наши новые фильмы 2018-2019 [ 2.17 GB ] Гоголь. Вий [2018 BDRip-AVC] [] bober100 Скачать
1 | 0

28-11-2019 20:33  

Отключить всю рекламу на сайте

22-05-2018 16:15 Гоголь. Вий Скачать торрент  

Описание - жуть . Сразу отталкивает , Гоголь типа охотник за нечистью какой-то , а не писатель - классик . Скоро Толстого в Джека Потрошителя превратят , а Бажова в в типичного любителя трипа.piratbit.pw



23-05-2018 09:06 Гоголь. Вий Скачать торрент  

а будет 18+ как в гоголь начало?piratbit.pw



25-05-2018 11:17 Гоголь. Вий Скачать торрент  

Слегка разочаровало продолжение.После первой части ожидал бОльшего..piratbit.pw



25-05-2018 11:22 Гоголь. Вий Скачать торрент  

han2009 писал(а):

Описание - жуть . Сразу отталкивает , Гоголь типа охотник за нечистью какой-то , а не писатель - классик . Скоро Толстого в Джека Потрошителя превратят , а Бажова в в типичного любителя трипа.

А никто и не претендовал на автобиографичность сего "кина" и никогда об этом нигде не заявлял))В том числе и на полное соответствие первоисточникам,от коих в фильме оставили разве что географические названия и имена некоторых героев повестей Гоголя.Просто фантазия на тему-не более.Хотите-смотрите.Не хотите-не смотрите.piratbit.pw



30-05-2018 16:57 Гоголь. Вий Скачать торрент  

фуфлоpiratbit.pw



31-05-2018 12:02 Гоголь. Вий Скачать торрент  

Stopper68 писал(а):

han2009 писал(а):

Описание - жуть . Сразу отталкивает , Гоголь типа охотник за нечистью какой-то , а не писатель - классик . Скоро Толстого в Джека Потрошителя превратят , а Бажова в в типичного любителя трипа.

А никто и не претендовал на автобиографичность сего "кина" и никогда об этом нигде не заявлял))В том числе и на полное соответствие первоисточникам,от коих в фильме оставили разве что географические названия и имена некоторых героев повестей Гоголя.Просто фантазия на тему-не более.Хотите-смотрите.Не хотите-не смотрите.

Присоединяюсь, если продажи произведений Гоголя Н.В. повысились в разы, то уже хорошо.piratbit.pw



    Дорогой пользователь! Огромная просьба, поблагодарите релизера, оцените раздачу и оставьте свои комментарий, если Вы скачали Гоголь. Вий через торрент бесплатно! Внесите свою лепту в развитие PiratBit!
    Комментировать посты могут только пользователи прошедшие не сложную регистрацию
    Показать сообщения:    

    Гоголь. Вий через торрент
    Скачать бесплатно Гоголь. Вий
    Гоголь. Вий скачать торрент
    Гоголь. Вий смотреть онлайн
    Cкачать фильм Гоголь. Вий бесплатно
    Гоголь. Вий скачать торрент в хорошем качестве
    Гоголь. Вий смотреть онлайн бесплатно в хорошем качестве


    Вы не можете начинать темы
    Вы не можете отвечать на сообщения
    Вы не можете редактировать свои сообщения
    Вы не можете удалять свои сообщения
    Вы не можете голосовать в опросах
    Вы не можете прикреплять файлы к сообщениям
    Вы можете скачивать файлы