Marvel's Avengers Deluxe Edition (супер цена) 159р. Внимание количество ограничено!!!

2 сезон

iTunes

iTunes

1

iTunes

iTunes

iTunes

WEBRip

iTunes

30
pack

Новость дня

ВАЖНО

!!Акция!!

Alien_RageХит недели

RePack

Horizon Zero Dawn

ИГРА 18+

pack

RePack

jed

!!Акция!!

Alien_Rage

RePack

fifa19

RePack

Assassins Creed: Odyssey

RePack

NEED FOR SPEED™ PAYBACK

4 сезон

9 сезон

Бесстыжие 9 сезон

Все сериалы

все сериалы на PB.wtf

RePack

FAR CRY 5
  

ДухLess (Роман Прыгунов) [2012 г., драма, BDRip, HEVC (10 bit) 1080p] piratbit.pw

ДухLess через торрент piratbit.pw

Раздают: 1 [ 0 KB/s ]
Размер: 4.15 GB | Добавлен: 2 года 3 мес. назад | Торрент скачан:72 раза
Скачать  

20-05-2018 16:51 ДухLess Скачать торрент  

ДухLess
Год выпуска: 2012
Страна: Россия
Жанр: драма
Продолжительность: 01:45:24
Субтитры: Отсутствуют

Режиссер: Роман Прыгунов
Продюссер: Петр Ануров, Фёдор Бондарчук, Дмитрий Рудовский
Сценарий: Денис Родимин, Сергей Минаев



В ролях: Данила Козловский (Максим), Артем Михалков (Вадим, друг Максима), Михаил Ефремов (Кондратов), Мария Андреева (Юля), Артур Смольянинов (Авдей), Мария Кожевникова, Сергей Белоголовцев (Володя Гулякин), Игорь Войнаровский (Пархоменко), Михаил Люлинецкий (банкир из провинции), Михаил Мухтасипов, Илья Рыбаков, Евгений Шиманович (сын олигарха, наркоман)

Описание: Главный герой фильма — 29-летний топ-менеджер крупного международного банка по имени Макс. Он уверен, что жизнь удалась, ведь у него есть то, о чём многие не могут даже и мечтать: дорогая машина, пентхаус и вечеринки. Свою жизнь Максим тратит на зарабатывание денег, а деньги — на ночные клубы, шикарных девушек, кокаин и прочие атрибуты гламурной жизни. Но в какой-то момент к герою приходит осознание того, что с его жизнью что-то не так. И его мир рушится подобно карточному домику.
Доп. информация: - H.265/HEVC (High Efficiency Video Coding) - это новый стандарт кодирования видео.
- Стандарт H.265/HEVC является логическим продолжением стандарта H.264/AVC (Advanced Video Coding), и характеризуется более эффективными алгоритмами сжатия, а также поддержкой высокого разрешения вплоть до 8K UHD (8192x4320). Первая версия стандарта H.265 была опубликована в начале 2013 года.
- Рипы в фомате HEVC поддерживается не всеми аппаратными проигрывателями.
- Для корректного воспроизведения может потребоваться обновление ПО.
- Владельцам несовместимого железа просьба не беспокоить, есть альтернативные релизы.
Качество: BDRip 1080p
Формат: MKV
Видео кодек: H.265
Аудио кодек: AC3
Видео: 1920x816, ~4999 Kbps [Main 10@L5.1@Main]
Аудио#1: AC3, 6 ch, 640 Kbps
Релиз от: HANNIBAL
Общее
Уникальный идентификатор : 233229174480294237027009821485928176991 (0xAF764E1B4586C1CAB13FBF8C0B965D5F)
Полное имя : J:\ФИЛЬМЫ\Duxless. (2012) BDRip 1080p [HEVC] 10 bit.mkv
Формат : Matroska
Версия формата : Version 4 / Version 2
Размер файла : 4,15 Гбайт
Продолжительность : 1 ч. 45 м.
Общий поток : 5640 Кбит/сек
Дата кодирования : UTC 2018-05-11 17:32:52
Программа кодирования : mkvmerge v8.9.0 ('Father Daughter') 64bit
Библиотека кодирования : libebml v1.3.3 + libmatroska v1.4.4 / Lavf57.71.100
Обложка : Yes
Attachments : cover.jpg
ENCODING_INFO : MATROSKA,WEBM > MKV Пользовательский / H264 > X265 CBR 5100kbps Ultra Fast / DTS-HD MA > AC3 CBR 640kbps

Видео
Идентификатор : 1
Формат : HEVC
Формат/Информация : High Efficiency Video Coding
Профиль формата : Main 10@L5.1@Main
Идентификатор кодека : V_MPEGH/ISO/HEVC
Продолжительность : 1 ч. 45 м.
Битрейт : 4999 Кбит/сек
Ширина : 1920 пикселей
Высота : 816 пикселей
Соотношение сторон : 2,35:1
Режим частоты кадров : Постоянный
Частота кадров : 24,000 кадра/сек
Цветовое пространство : YUV
Субдискретизация насыщенности : 4:2:0
Битовая глубина : 10 бит
Бит/(Пиксели*Кадры) : 0.133
Размер потока : 3,68 Гбайт (89%)
Библиотека кодирования : x265 2.7+336-07defe235cde:[Windows][clang 7.0.0][64 bit] 10bit
Настройки программы : cpuid=1049583 / frame-threads=5 / numa-pools=4 / wpp / no-pmode / no-pme / no-psnr / no-ssim / log-level=3 / input-csp=1 / input-res=1920x816 / interlace=0 / total-frames=0 / level-idc=51 / high-tier=1 / uhd-bd=0 / ref=1 / allow-non-conformance / no-repeat-headers / annexb / no-aud / no-hrd / info / hash=0 / no-temporal-layers / open-gop / min-keyint=24 / keyint=240 / gop-lookahead=0 / bframes=3 / b-adapt=0 / b-pyramid / bframe-bias=0 / rc-lookahead=5 / lookahead-slices=5 / scenecut=0 / radl=0 / no-intra-refresh / ctu=64 / min-cu-size=8 / no-rect / no-amp / max-tu-size=32 / tu-inter-depth=1 / tu-intra-depth=1 / limit-tu=0 / rdoq-level=0 / dynamic-rd=0.00 / no-ssim-rd / signhide / no-tskip / nr-intra=0 / nr-inter=0 / no-constrained-intra / strong-intra-smoothing / max-merge=2 / limit-refs=3 / no-limit-modes / me=0 / subme=0 / merange=57 / temporal-mvp / no-weightp / no-weightb / no-analyze-src-pics / deblock=-2:-2 / sao / no-sao-non-deblock / rd=3 / no-early-skip / rskip / no-fast-intra / no-tskip-fast / no-cu-lossless / no-b-intra / no-splitrd-skip / rdpenalty=0 / psy-rd=2.00 / psy-rdoq=0.00 / no-rd-refine / no-lossless / cbqpoffs=0 / crqpoffs=0 / rc=cbr / bitrate=5100 / qcomp=0.60 / qpstep=4 / stats-write=0 / stats-read=0 / vbv-maxrate=5100 / vbv-bufsize=3642 / vbv-init=0.9 / ipratio=1.40 / pbratio=1.30 / aq-mode=1 / aq-strength=0.00 / cutree / zone-count=0 / no-strict-cbr / qg-size=32 / no-rc-grain / qpmax=69 / qpmin=0 / no-const-vbv / sar=1 / overscan=0 / videoformat=5 / range=0 / colorprim=1 / transfer=14 / colormatrix=1 / chromaloc=0 / display-window=0 / max-cll=0,0 / min-luma=0 / max-luma=1023 / log2-max-poc-lsb=8 / vui-timing-info / vui-hrd-info / slices=1 / no-opt-qp-pps / no-opt-ref-list-length-pps / no-multi-pass-opt-rps / scenecut-bias=0.05 / no-opt-cu-delta-qp / no-aq-motion / no-hdr / no-hdr-opt / no-dhdr10-opt / no-idr-recovery-sei / analysis-reuse-level=5 / scale-factor=0 / refine-intra=0 / refine-inter=0 / refine-mv=0 / no-limit-sao / ctu-info=0 / no-lowpass-dct / refine-mv-type=0 / copy-pic=1 / max-ausize-factor=1.0 / no-dynamic-refine / no-single-sei
Язык : Russian
Default : Да
Forced : Да
Цветовой диапазон : Limited
Основные цвета : BT.709
Характеристики трансфера : BT.2020 (10-bit)
Коэффициенты матрицы : BT.709

Аудио
Идентификатор : 2
Формат : AC-3
Формат/Информация : Audio Coding 3
Идентификатор кодека : A_AC3
Продолжительность : 1 ч. 45 м.
Вид битрейта : Постоянный
Битрейт : 640 Кбит/сек
Каналы : 6 каналов
Расположение каналов : Front: L C R, Side: L R, LFE
Частота : 48,0 КГц
Частота кадров : 31,250 кадров/сек (1536 SPF)
Битовая глубина : 16 бит
Метод сжатия : С потерями
Размер потока : 483 Мбайт (11%)
Заголовок : DTS-HD MA 5.1
Язык : Russian
ServiceKind/String : Complete Main
Default : Да
Forced : Нет

Меню
00:00:00.000 : :Глава 1
00:10:16.666 : :Глава 2
00:21:17.750 : :Глава 3
00:38:58.500 : :Глава 4
00:52:55.250 : :Глава 5
01:04:04.208 : :Глава 6
01:19:12.708 : :Глава 7
01:28:17.083 : :Глава 8

piratbit.pw



Скачать ДухLess через торрент https://c.radikal.ru/c38/1805/dc/6c7efb9eda82.jpg Скачать фильм ДухLess через торрент бесплантно в хорошем качестве Описание: Главный герой фильма — 29-летний топ-менеджер крупного международного банка по имени Макс. Он уверен, что жизнь удалась, ведь у ... 5.5 10 2
Торрент: Зарегистрирован [2018-05-20 16:51] · скачан: 72 раз
Статус: √ проверено
Размер: 4.15 GB
Как cкачать? Как скачать ДухLess через торрент | qTorrent

% Раздел Тема Автор DL S | L
Наши фильмы (HD, WEB-DL 720p, 1080p) [ 4.37 GB ] ДухLess 2 [2015 BDRip HEVC 1080p] Мичман37 Скачать
2 | 0

28-11-2019 20:33  

Отключить всю рекламу на сайте

    Дорогой пользователь! Огромная просьба, поблагодарите релизера, оцените раздачу и оставьте свои комментарий, если Вы скачали ДухLess через торрент бесплатно! Внесите свою лепту в развитие PiratBit!
    Комментировать посты могут только пользователи прошедшие не сложную регистрацию
    Показать сообщения:    

    ДухLess через торрент
    Скачать бесплатно ДухLess
    ДухLess скачать торрент
    ДухLess смотреть онлайн
    Cкачать фильм ДухLess бесплатно
    ДухLess скачать торрент в хорошем качестве
    ДухLess смотреть онлайн бесплатно в хорошем качестве


    Вы не можете начинать темы
    Вы не можете отвечать на сообщения
    Вы не можете редактировать свои сообщения
    Вы не можете удалять свои сообщения
    Вы не можете голосовать в опросах
    Вы не можете прикреплять файлы к сообщениям
    Вы можете скачивать файлы