Marvel's Avengers Deluxe Edition (супер цена) 159р. Внимание количество ограничено!!!

2 сезон

iTunes

iTunes

1

iTunes

iTunes

iTunes

WEBRip

iTunes

30
pack

Новость дня

ВАЖНО

!!Акция!!

Alien_RageХит недели

RePack

Horizon Zero Dawn

ИГРА 18+

pack

RePack

jed

!!Акция!!

Alien_Rage

RePack

fifa19

RePack

Assassins Creed: Odyssey

RePack

NEED FOR SPEED™ PAYBACK

4 сезон

9 сезон

Бесстыжие 9 сезон

Все сериалы

все сериалы на PB.wtf

RePack

FAR CRY 5
  

Летающий корабль (Артур Войтецкий, Михаил Юферов) [1960, СССР, фэнтези, сказка, DVDRip-AVC от AVP Studio] piratbit.pw

Летающий корабль через торрент piratbit.pw

Размер: 745 MB | Добавлен: 2 года 4 мес. назад | Торрент скачан:23 раза
Скачать  

14-05-2018 09:09 Летающий корабль Скачать торрент  

Летающий корабль
Страна: СССР
Производство: Киностудия им. Довженко

Жанр: фэнтези, сказка
Год выпуска: 1960
Продолжительность: 01:03:44

Перевод: Не требуется
Cубтитры: нет
Оригинальная аудиодорожка: русский

Режиссер: Артур Войтецкий, Михаил Юферов

В ролях:
Игорь Ершов, Лариса Гордейчик, Ада Роговцева, Роберт Клявин, Владимир Дальский, Павел Шпрингфельд, Людмила Татьянчук, Валентина Калиновская, Зинаида Юрченко, Валентин Грудинин, Сергей Сибель, Дмитрий Гнатюк...
Об актёрах подробней

Описание:
По мотивам украинской народной сказки.
В приднепровском краю жил богатырь Котигорошко с сестренкой Аленкой. Страшный Змей украл Аленку и унес в свое змеиное царство. Вольные запорожцы выковали меч, дали живой воды и проводили Котигорошко в дальний путь. На летающем корабле прилетел он в змеиное царство, победил Змея, оживил сестренку, освободил всех невольников и вернулся в родные края.

Источник: DVD5 R5
Качество видео: DVDRip-AVC
Формат видео: MKV

Видео: 692->760х570 (4:3), 25 fps, H264 ~ 1248 kbps avg, 0.127 bit/pixel
Аудио: 48 kHz, Dolby Digital AC3 5.1, 384 kbps

Раздача от:
Общее
Полное имя : Letayushhiy.korabl.1960.DVDRip-AVC_[New-team]_by_AVP_Studio.mkv
Формат : Matroska
Версия формата : Version 2
Размер файла : 745 Мбайт
Продолжительность : 1 ч. 3 м.
Общий поток : 1634 Кбит/сек
Дата кодирования : UTC 2018-05-12 10:43:30
Программа кодирования : mkvmerge v6.1.0 ('Old Devil') built on Mar 4 2013 09:10:42
Библиотека кодирования : libebml v1.3.0 + libmatroska v1.4.0

Видео
Идентификатор : 1
Формат : AVC
Формат/Информация : Advanced Video Codec
Профиль формата : High@L4.1
Настройки формата : CABAC / 10 Ref Frames
Параметр CABAC формата : Да
Параметр RefFrames формата : 10 кадров
Идентификатор кодека : V_MPEG4/ISO/AVC
Продолжительность : 1 ч. 3 м.
Битрейт : 1248 Кбит/сек
Ширина : 692 пикселя
Высота : 570 пикселей
Соотношение сторон : 4:3
Режим частоты кадров : Постоянный
Частота кадров : 25,000 кадров/сек
Цветовое пространство : YUV
Субдискретизация насыщенности : 4:2:0
Битовая глубина : 8 бит
Тип развёртки : Прогрессивная
Бит/(Пиксели*Кадры) : 0.127
Размер потока : 555 Мбайт (75%)
Библиотека кодирования : x264 core 130 r2273 b3065e6
Настройки программы : cabac=1 / ref=10 / deblock=1:-2:-1 / analyse=0x3:0x113 / me=umh / subme=10 / psy=1 / psy_rd=1.00:0.00 / mixed_ref=1 / me_range=32 / chroma_me=1 / trellis=2 / 8x8dct=1 / cqm=0 / deadzone=21,11 / fast_pskip=1 / chroma_qp_offset=-2 / threads=6 / lookahead_threads=1 / sliced_threads=0 / nr=0 / decimate=0 / interlaced=0 / bluray_compat=0 / constrained_intra=0 / bframes=8 / b_pyramid=2 / b_adapt=2 / b_bias=0 / direct=3 / weightb=1 / open_gop=0 / weightp=2 / keyint=250 / keyint_min=25 / scenecut=40 / intra_refresh=0 / rc=2pass / mbtree=0 / bitrate=1248 / ratetol=1.0 / qcomp=0.60 / qpmin=0 / qpmax=69 / qpstep=4 / cplxblur=20.0 / qblur=0.5 / ip_ratio=1.40 / pb_ratio=1.30 / aq=1:1.00
Default : Да
Forced : Нет

Аудио
Идентификатор : 2
Формат : AC-3
Формат/Информация : Audio Coding 3
Идентификатор кодека : A_AC3
Продолжительность : 1 ч. 3 м.
Вид битрейта : Постоянный
Битрейт : 384 Кбит/сек
Каналы : 6 каналов
Расположение каналов : Front: L C R, Side: L R, LFE
Частота : 48,0 КГц
Частота кадров : 31,250 кадров/сек (1536 SPF)
Битовая глубина : 16 бит
Метод сжатия : С потерями
Размер потока : 175 Мбайт (24%)
Default : Да
Forced : Нет
piratbit.pw



Скачать Летающий корабль через торрент http://picplus.ru/img/1805/13/f3d018a9.png Скачать фильм Летающий корабль через торрент бесплантно в хорошем качестве Описание:По мотивам украинской народной сказки.В приднепровском краю жил богатырь Котигорошко с сестренкой Аленкой. Страшный Змей украл ... 10 10 1
Info! Золотая раздача, скачанное не засчитывается.
Торрент: Зарегистрирован [2018-05-14 09:09] · скачан: 23 раз
Статус: √ проверено
Размер: 745 MB
Как cкачать? Как скачать Летающий корабль через торрент | qTorrent

% Раздел Тема Автор DL S | L
Детские отечественные фильмы [ 743 MB ] Летающий корабль [1960 СССР сказка DVDRip от AVP Studio] AVP Studio Скачать
1 | 0
Аниме [DVDrip, WEB-DLRip, HDrip] [ 894 MB ] Летающий корабль-призрак / Sora tobu yûreisen [1969 аниме мультфильм DVDRip DUB лицензия] jump88 Скачать
1 | 0
Детские отечественные фильмы [ 1.37 GB ] Летающий корабль [1960 DVDRip] DJERG Скачать
1 | 0

28-11-2019 20:33  

Отключить всю рекламу на сайте

    Дорогой пользователь! Огромная просьба, поблагодарите релизера, оцените раздачу и оставьте свои комментарий, если Вы скачали Летающий корабль через торрент бесплатно! Внесите свою лепту в развитие PiratBit!
    Комментировать посты могут только пользователи прошедшие не сложную регистрацию
    Показать сообщения:    

    Летающий корабль через торрент
    Скачать бесплатно Летающий корабль
    Летающий корабль скачать торрент
    Летающий корабль смотреть онлайн
    Cкачать фильм Летающий корабль бесплатно
    Летающий корабль скачать торрент в хорошем качестве
    Летающий корабль смотреть онлайн бесплатно в хорошем качестве


    Вы не можете начинать темы
    Вы не можете отвечать на сообщения
    Вы не можете редактировать свои сообщения
    Вы не можете удалять свои сообщения
    Вы не можете голосовать в опросах
    Вы не можете прикреплять файлы к сообщениям
    Вы можете скачивать файлы