1 сезон

1 сезон

iTunes

1

КиноПоиск HD

Кинопоиск HD

iTunes

13

1 сезон

RePack

30

Ultimate

ВАЖНО

ИГРА 18+

pack

RePack

MK11
pack

Легкие деньги

RePack

jed

RePack

fifa19

RePack

RDR2

RePack

NEED FOR SPEED™ PAYBACK

4 сезон

9 сезон

Бесстыжие 9 сезон

Все сериалы

все сериалы на PB.wtf

RePack

FAR CRY 5
  
Magnet ссылка

Земля, забытая временем / The Land that Time Forgot (Кевин Коннор) [1975, фантастика, приключения, BDRip 720p by msltel] AVO piratbit.pw

Земля, забытая временем через торрент piratbit.pw

Размер: 4.31 GB | Добавлен: 2 года 11 мес. назад | Торрент скачан:9 раз
Скачать  

08-05-2018 09:25 Земля, забытая временем Скачать торрент  

Название: Земля, забытая временем
Оригинальное название: The Land that Time Forgot
Год выпуска: 1975
Страна: Великобритания, США
Жанр: фантастика, приключения
Продолжительность: 01:31:21
Перевод: авторский

Режиссер: Кевин Коннор
В ролях: Даг МакКлёр, Джон МакИнери, Сьюзен Пенхалигон, Кит Баррон, Энтони Эйнли, Годфри Джеймс, Бобби Парр, Деклан Малхолланд, Колин Фаррелл, Бен Ховард

О фильме: В 1916 году, во время Первой мировой войны, британское торговое судно оказывается потоплено германской подлодкой. Однако немногим спасшимся удаётся захватить подводную лодку врагов. После блужданий по океану они оказываются на неизведанном острове, где динозавры обитают вместе с первобытными людьми... Фильм снят по одноимённой книге Эдгара Берроуза.



Качество: BDRip 720p
Формат: MKV
Видео: MPEG-4 AVC, 6172 Кбит/с, 1280x690
Аудио 1: русский, AC3, 384 kbps, 2 ch, 48 kHz [авторский, Юрий Живов]
Аудио 2: английский, AC3, 192 kbps, 2 ch, 48 kHz [оригинал]
Субтитры: английские
Главы/чаптеры
Общее
Уникальный идентификатор : 210898145401855912196631837881700975542 (0x9EA9815E421CAB9D8F1792984FFC03B6)
Полное имя : D:\Video\Земля, забытая временем.1975.BDRip.720p by msltel.mkv
Формат : Matroska
Версия формата : Version 4 / Version 2
Размер файла : 4,31 Гбайт
Продолжительность : 1 ч. 31 м.
Общий поток : 6750 Кбит/сек
Название фильма : Rip by msltel
Дата кодирования : UTC 2018-05-08 06:23:48
Программа кодирования : mkvmerge v8.2.0 ('World of Adventure') 64bit
Библиотека кодирования : libebml v1.3.1 + libmatroska v1.4.2

Видео
Идентификатор : 1
Формат : AVC
Формат/Информация : Advanced Video Codec
Профиль формата : High@L4.1
Настройки формата : CABAC / 9 Ref Frames
Параметр CABAC формата : Да
Параметр RefFrames формата : 9 кадров
Идентификатор кодека : V_MPEG4/ISO/AVC
Продолжительность : 1 ч. 31 м.
Битрейт : 6172 Кбит/сек
Ширина : 1280 пикселей
Высота : 690 пикселей
Соотношение сторон : 1,85:1
Режим частоты кадров : Постоянный
Частота кадров : 23,976 (24000/1001) кадра/сек
Цветовое пространство : YUV
Субдискретизация насыщенности : 4:2:0
Битовая глубина : 8 бит
Тип развёртки : Прогрессивная
Бит/(Пиксели*Кадры) : 0.291
Размер потока : 3,94 Гбайт (91%)
Библиотека кодирования : x264 core 146 r2538 121396c
Настройки программы : cabac=1 / ref=9 / deblock=1:-3:-2 / analyse=0x3:0x113 / me=umh / subme=11 / psy=1 / psy_rd=1.00:0.15 / mixed_ref=1 / me_range=32 / chroma_me=1 / trellis=2 / 8x8dct=1 / cqm=0 / deadzone=21,11 / fast_pskip=0 / chroma_qp_offset=-3 / threads=6 / lookahead_threads=1 / sliced_threads=0 / nr=0 / decimate=1 / interlaced=0 / bluray_compat=0 / constrained_intra=0 / bframes=10 / b_pyramid=2 / b_adapt=2 / b_bias=0 / direct=1 / weightb=1 / open_gop=0 / weightp=2 / keyint=230 / keyint_min=23 / scenecut=40 / intra_refresh=0 / rc_lookahead=40 / rc=crf / mbtree=0 / crf=20.9 / qcomp=0.60 / qpmin=0 / qpmax=69 / qpstep=4 / vbv_maxrate=62500 / vbv_bufsize=78125 / crf_max=0.0 / nal_hrd=none / filler=0 / ip_ratio=1.40 / pb_ratio=1.30 / aq=1:1.00
Язык : English
Default : Да
Forced : Нет

Аудио #1
Идентификатор : 2
Формат : AC-3
Формат/Информация : Audio Coding 3
Идентификатор кодека : A_AC3
Продолжительность : 1 ч. 31 м.
Вид битрейта : Постоянный
Битрейт : 384 Кбит/сек
Каналы : 2 канала
Расположение каналов : Front: L R
Частота : 48,0 КГц
Частота кадров : 31,250 кадров/сек (1536 SPF)
Битовая глубина : 16 бит
Метод сжатия : С потерями
Размер потока : 251 Мбайт (6%)
Заголовок : Живов
Язык : Russian
ServiceKind/String : Complete Main
Default : Да
Forced : Нет

Аудио #2
Идентификатор : 3
Формат : AC-3
Формат/Информация : Audio Coding 3
Идентификатор кодека : A_AC3
Продолжительность : 1 ч. 31 м.
Вид битрейта : Постоянный
Битрейт : 192 Кбит/сек
Каналы : 2 канала
Расположение каналов : Front: L R
Частота : 48,0 КГц
Частота кадров : 31,250 кадров/сек (1536 SPF)
Битовая глубина : 16 бит
Метод сжатия : С потерями
Размер потока : 125 Мбайт (3%)
Заголовок : original
Язык : English
ServiceKind/String : Complete Main
Default : Нет
Forced : Нет

Текст
Идентификатор : 4
Формат : UTF-8
Идентификатор кодека : S_TEXT/UTF8
Идентификатор кодека/Информация : UTF-8 Plain Text
Продолжительность : 1 ч. 26 м.
Битрейт : 29 бит/сек
ElementCount : 572
Размер потока : 18,9 Кбайт (0%)
Заголовок : английские
Язык : English
Default : Нет
Forced : Нет

Меню
00:00:00.000 : en:
00:04:59.882 : en:
00:15:18.667 : en:
00:18:49.044 : en:
00:22:50.786 : en:
00:27:51.586 : en:
00:31:38.855 : en:
00:39:31.535 : en:
00:43:50.044 : en:
00:53:21.364 : en:
00:57:03.336 : en:
01:03:14.040 : en:
01:10:32.645 : en:
01:18:31.665 : en:
01:22:42.540 : en:
01:30:31.134 : en:
piratbit.pw



Скачать Земля, забытая временем через торрент https://a.radikal.ru/a30/1805/3a/872374eacda7.jpg Скачать фильм Земля, забытая временем через торрент бесплантно в хорошем качестве О фильме: В 1916 году, во время Первой мировой войны, британское торговое судно оказывается потоплено германской подлодкой. Однако немногим ... 10 10 1
Info! Золотая раздача, скачанное не засчитывается.
Торрент: Зарегистрирован [2018-05-08 09:25] · скачан: 9 раз
Статус: √ проверено
Размер: 4.31 GB
Как cкачать? Как скачать Земля, забытая временем через торрент | UTorrent

% Раздел Тема Автор DL S | L
Классика зарубежного кино [ 5.2 GB ] Земля забытая временем / The Land that Time Forgot [1974 экранизация BDRip 720p от KORSAR][AVO ] Cthulhu Скачать
1 | 0
Фильмы с авторской озвучкой [ 10.88 GB ] Земля забытая временем / The Land that Time Forgot [1975 BDRip 1080p by msltel] AVO msltel Скачать
1 | 0

28-11-2019 20:33  

Отключить всю рекламу на сайте

    Дорогой пользователь! Огромная просьба, поблагодарите релизера, оцените раздачу и оставьте свои комментарий, если Вы скачали Земля, забытая временем через торрент бесплатно! Внесите свою лепту в развитие PiratBit!
    Комментировать посты могут только пользователи прошедшие не сложную регистрацию
    Показать сообщения:    

    Земля, забытая временем через торрент
    Скачать бесплатно Земля, забытая временем
    Земля, забытая временем скачать торрент
    Земля, забытая временем смотреть онлайн
    Cкачать фильм Земля, забытая временем бесплатно
    Земля, забытая временем скачать торрент в хорошем качестве
    Земля, забытая временем смотреть онлайн бесплатно в хорошем качестве


    Вы не можете начинать темы
    Вы не можете отвечать на сообщения
    Вы не можете редактировать свои сообщения
    Вы не можете удалять свои сообщения
    Вы не можете голосовать в опросах
    Вы не можете прикреплять файлы к сообщениям
    Вы можете скачивать файлы