1 сезон

1 сезон

iTunes

1

КиноПоиск HD

Кинопоиск HD

iTunes

13

1 сезон

RePack

30

Новинка

ВАЖНО

ИГРА 18+

pack

RePack

MK11
pack

Легкие деньги

RePack

jed

RePack

fifa19

RePack

RDR2

RePack

NEED FOR SPEED™ PAYBACK

4 сезон

9 сезон

Бесстыжие 9 сезон

Все сериалы

все сериалы на PB.wtf

RePack

FAR CRY 5
  
Magnet ссылка

Горячая жевательная резинка 6: Поднимайте якорь / Harimu Ogen (Дэн Уолмен) [1985 г., Комедия, DVDRip-AVC, Авторский (одноголосый)] от ExKinoRay piratbit.pw

Горячая жевательная резинка 6: Поднимайте якорь через торрент piratbit.pw

Размер: 2 GB | Добавлен: 2 года 11 мес. назад | Торрент скачан:36 раз
Скачать  

07-05-2018 17:09 Горячая жевательная резинка 6: Поднимайте якорь Скачать торрент  

Горячая жевательная резинка 6: Поднимайте якорь / Harimu Ogen
Год выпуска: 1985
Страна: Германия (ФРГ), Израиль
Жанр: Комедия
Продолжительность: 01:23:46
Перевод: Авторский одноголосый (Андрей Дольский)

Режиссер: Дэн Уолмен

Премьера в мире: 10 мая 1985

rating

В ролях: Ифтах Кацур, Цахи Ной, Ронен Шилон, Двора Кедар, Александра Кастер, Иегуда Эфрони,Александр Аллерсон, Итсак Ацмон, Лори Беннет, Ренато Фадуан

Описание: В этом фильме наши друзья вербуются на туристическое судно в качестве матросов… Теперь наших друзей лишь двое. Момо уехал в Америку. Из Америки Момо не перестает зажигать своих друзей подробностями своих похождений. В порыве страсти, Юдале запутался в половой связи с одной девушкой. Убегая от разъяренного отца девушки Юдале прихватывает Бенци и вербуется вместе с ним на судно бороздящее Средиземное Море. К своему удивлению и ужасу узнает Юдале в боцмане разъяренного отца своей дамочки. Все развивается очень стремительно. Похождения, вновь романтическая любовь Бенци, на сей раз к капитанской дочке и даже приключения с бриллиантами…

Качество: DVDRip-AVC
Формат: MKV
Видео кодек: MPEG4
Аудио кодек: AC3
Видео: MPEG-4 AVC, 3000 Кбит/с, 676x572@960x572, 25 кадров/сек
Аудио#1: Русский (AC3, 2 ch, 192 Кбит/с, 48 КГц)
Аудио#2: Немецкий (AC3, 2 ch, 224 Кбит/с, 48 КГц)
Релиз от:




raw [info]: 676x572p 64:45 @ 25/1 fps (cfr)
x264 [info]: using SAR=64/45
x264 [info]: using cpu capabilities: MMX2 SSE2Fast LZCNT
x264 [info]: profile High, level 4.1
x264 [info]: frame I:777 Avg QP:19.48 size: 60201
x264 [info]: frame P:25715 Avg QP:21.79 size: 27783
x264 [info]: frame B:99168 Avg QP:23.50 size: 11330
x264 [info]: consecutive B-frames: 1.0% 1.6% 6.2% 19.8% 19.2% 45.6% 4.5% 1.3% 0.5% 0.2% 0.0% 0.0% 0.0% 0.0% 0.0% 0.0% 0.1%
-----
Общее
Уникальный идентификатор : 202694688652837336614218375076052459235 (0x987D93B92FCB374C86F46EE774BFDEE3)
Полное имя : D:\ExKinoRay\Bubblegum6.1985.DVDRip-AVC.ExKinoRay.mkv
Формат : Matroska
Версия формата : Version 2
Размер файла : 2,00 Гбайт
Продолжительность : 1 ч. 23 м.
Общий поток : 3418 Кбит/сек
Дата кодирования : UTC 2018-05-07 13:15:36
Программа кодирования : mkvmerge v7.8.0 ('River Man') 32bit built on Apr 3 2015 12:11:22
Библиотека кодирования : libebml v1.3.1 + libmatroska v1.4.2

Видео
Идентификатор : 1
Формат : AVC
Формат/Информация : Advanced Video Codec
Профиль формата : High@L4.1
Параметр CABAC формата : Да
Параметр ReFrames формата : 14 кадров
Идентификатор кодека : V_MPEG4/ISO/AVC
Продолжительность : 1 ч. 23 м.
Битрейт : 3000 Кбит/сек
Ширина : 676 пикселей
Высота : 572 пикселя
Соотношение сторон : 5:3
Соотношение сторон в оригинале : 5:3
Режим частоты кадров : Постоянный
Частота кадров : 25,000 кадров/сек
Цветовое пространство : YUV
Субдискретизация насыщенности : 4:2:0
Битовая глубина : 8 бит
Тип развёртки : Прогрессивная
Бит/(Пиксели*Кадры) : 0.310
Размер потока : 1,72 Гбайт (86%)
Библиотека кодирования : x264 core 148 r2638 7599210
Настройки программы : cabac=1 / ref=14 / deblock=1:-2:-2 / analyse=0x3:0x133 / me=umh / subme=10 / psy=1 / psy_rd=1.05:0.15 / mixed_ref=1 / me_range=32 / chroma_me=1 / trellis=2 / 8x8dct=1 / cqm=0 / deadzone=21,11 / fast_pskip=0 / chroma_qp_offset=-3 / threads=4 / lookahead_threads=1 / sliced_threads=0 / nr=0 / decimate=0 / interlaced=0 / bluray_compat=0 / constrained_intra=0 / bframes=16 / b_pyramid=2 / b_adapt=2 / b_bias=0 / direct=3 / weightb=1 / open_gop=0 / weightp=2 / keyint=250 / keyint_min=25 / scenecut=40 / intra_refresh=0 / rc=2pass / mbtree=0 / bitrate=3000 / ratetol=1.0 / qcomp=0.60 / qpmin=0 / qpmax=69 / qpstep=4 / cplxblur=20.0 / qblur=0.5 / ip_ratio=1.40 / pb_ratio=1.30 / aq=1:1.00
Язык : English
Default : Да
Forced : Нет
Цветовой диапазон : Limited
Основные цвета : BT.601 NTSC
Характеристики трансфера : BT.601
Коэффициенты матрицы : BT.601

Аудио #1
Идентификатор : 2
Формат : AC-3
Формат/Информация : Audio Coding 3
Профиль формата : Dolby Digital
Расширение режима : CM (complete main)
Параметр Endianness формата : Big
Идентификатор кодека : A_AC3
Продолжительность : 1 ч. 23 м.
Вид битрейта : Постоянный
Битрейт : 192 Кбит/сек
Каналы : 2 канала
Расположение каналов : Front: L R
Частота : 48,0 КГц
Частота кадров : 31,250 кадров/сек (1536 spf)
Метод сжатия : С потерями
Размер потока : 115 Мбайт (6%)
Заголовок : Андрей Дольский
Язык : Russian
Default : Да
Forced : Нет

Аудио #2
Идентификатор : 3
Формат : AC-3
Формат/Информация : Audio Coding 3
Расширение режима : CM (complete main)
Параметр Endianness формата : Big
Идентификатор кодека : A_AC3
Продолжительность : 1 ч. 23 м.
Вид битрейта : Постоянный
Битрейт : 224 Кбит/сек
Каналы : 2 канала
Расположение каналов : Front: L R
Частота : 48,0 КГц
Частота кадров : 31,250 кадров/сек (1536 spf)
Метод сжатия : С потерями
Размер потока : 134 Мбайт (7%)
Язык : German
Default : Нет
Forced : Нет

piratbit.pw



Скачать Горячая жевательная резинка 6: Поднимайте якорь через торрент http://d.radikal.ru/d28/1805/1c/30651a679032.jpg Скачать фильм Горячая жевательная резинка 6: Поднимайте якорь через торрент бесплантно в хорошем качестве Описание: В этом фильме наши друзья вербуются на туристическое судно в качестве матросов… Теперь наших друзей лишь двое. Момо уехал в ... 9.7 10 3
Info! Золотая раздача, скачанное не засчитывается.
Торрент: Зарегистрирован [2018-05-07 17:09] · скачан: 36 раз
Статус: √ проверено
Размер: 2 GB
Как cкачать? Как скачать Горячая жевательная резинка 6: Поднимайте якорь через торрент | UTorrent

28-11-2019 20:33  

Отключить всю рекламу на сайте


08-05-2018 05:26 Горячая жевательная резинка 6: Поднимайте якорь Скачать торрент  

Топик был перенесен из форума Оформление раздач (Кино, Видео и ТВ) в форум Фильмы с авторской озвучкой


-Lexx-piratbit.pw



    Дорогой пользователь! Огромная просьба, поблагодарите релизера, оцените раздачу и оставьте свои комментарий, если Вы скачали Горячая жевательная резинка 6: Поднимайте якорь через торрент бесплатно! Внесите свою лепту в развитие PiratBit!
    Комментировать посты могут только пользователи прошедшие не сложную регистрацию
    Показать сообщения:    

    Горячая жевательная резинка 6: Поднимайте якорь через торрент
    Скачать бесплатно Горячая жевательная резинка 6: Поднимайте якорь
    Горячая жевательная резинка 6: Поднимайте якорь скачать торрент
    Горячая жевательная резинка 6: Поднимайте якорь смотреть онлайн
    Cкачать фильм Горячая жевательная резинка 6: Поднимайте якорь бесплатно
    Горячая жевательная резинка 6: Поднимайте якорь скачать торрент в хорошем качестве
    Горячая жевательная резинка 6: Поднимайте якорь смотреть онлайн бесплатно в хорошем качестве


    Вы не можете начинать темы
    Вы не можете отвечать на сообщения
    Вы не можете редактировать свои сообщения
    Вы не можете удалять свои сообщения
    Вы не можете голосовать в опросах
    Вы не можете прикреплять файлы к сообщениям
    Вы можете скачивать файлы