Ссылка на приватное зеркало нашего сайта всего за 1$. Внимание количество ограничено!!!

2 сезон

iTunes

iTunes

1

iTunes

iTunes

iTunes

WEBRip

iTunes

30
pack

Вам бонус

ВАЖНО

!!Акция!!

Alien_RageХит недели

RePack

Horizon Zero Dawn

ИГРА 18+

pack

RePack

jed

!!Акция!!

Alien_Rage

RePack

fifa19

RePack

Assassins Creed: Odyssey

RePack

NEED FOR SPEED™ PAYBACK

4 сезон

9 сезон

Бесстыжие 9 сезон

Все сериалы

все сериалы на PB.wtf

RePack

FAR CRY 5
  

Последний шанс (Михаил Погосов) [2017, Боевик, WEB-DL 1080p] piratbit.pw

Последний шанс через торрент piratbit.pw

Раздают: 1 [ 0 KB/s ]
Размер: 2.69 GB | Добавлен: 2 года 4 мес. назад | Торрент скачан:140 раз
Скачать  

30-04-2018 07:22 Последний шанс Скачать торрент  

Последний шансГод выпуска: 2017
Страна: Россия
Жанр: Боевик
Продолжительность: 01:30:56
Перевод: Не требуется
Субтитры: отсутствуют

Режиссер: Михаил Погосов



В ролях:

Дмитрий Клепацкий, Наталья Губина, Александр Носик, Игорь Жижикин, Мария Малиновская, Петар Зекавица, Василий Шлыков, Игорь Трошин, Марианна Васильева

Описание:

Молодая перспективная журналистика Юлия в погоне за интересным материалом о готовящейся спецоперации ФСБ попадает в опасную ситуацию, принимающую неожиданный оборот - девушка оказывается в руках преступников. Ей на выручку приходит бывший командир спецназа Андрей. Он - "волк-одиночка", жёсткий, сильный, но справедливый, не доверяет в жизни никому, особенно женщинам. Но Юля, считающая мужчину своим ангелом-хранителем, не хочет с ним расставаться, да и он теперь считает себя в ответе за девушку...

Качество: WEB-DL 1080p
Формат: MKV

Видео: H.264/AVC, 1920x1080, ~3996 Kbps
Аудио: AC-3, 2 ch, 192 Kbps
скриншот   скриншот   скриншот  

Общее
Уникальный идентификатор : 220239909618676299023564561066965213559 (0xA5B0A9E77B381CDF93B048EC1D562177)
Полное имя : E:NNMПоследний шансPoslednij shans 2017 WEB-DL 1080p-LQ.mkv
Формат : Matroska
Версия формата : Version 4 / Version 2
Размер файла : 2,69 Гбайт
Продолжительность : 1 ч. 32 м.
Общий поток : 4190 Кбит/сек
Дата кодирования : UTC 2018-04-28 19:43:50
Программа кодирования : mkvmerge v7.8.0 ('River Man') 32bit built on Mar 27 2015 16:18:02
Библиотека кодирования : libebml v1.3.1 + libmatroska v1.4.2

Видео
Идентификатор : 1
Формат : AVC
Формат/Информация : Advanced Video Codec
Профиль формата : High@L4
Настройки формата : CABAC / 3 Ref Frames
Параметр CABAC формата : Да
Параметр RefFrames формата : 3 кадра
Идентификатор кодека : V_MPEG4/ISO/AVC
Продолжительность : 1 ч. 32 м.
Битрейт : 3996 Кбит/сек
Ширина : 1920 пикселей
Высота : 1080 пикселей
Соотношение сторон : 16:9
Режим частоты кадров : Постоянный
Частота кадров : 25,000 кадров/сек
Цветовое пространство : YUV
Субдискретизация насыщенности : 4:2:0
Битовая глубина : 8 бит
Тип развёртки : Прогрессивная
Бит/(Пиксели*Кадры) : 0.077
Размер потока : 2,57 Гбайт (95%)
Default : Да
Forced : Нет

Аудио
Идентификатор : 2
Формат : AC-3
Формат/Информация : Audio Coding 3
Идентификатор кодека : A_AC3
Продолжительность : 1 ч. 32 м.
Вид битрейта : Постоянный
Битрейт : 192 Кбит/сек
Каналы : 2 канала
Расположение каналов : Front: L R
Частота : 48,0 КГц
Частота кадров : 31,250 кадров/сек (1536 SPF)
Битовая глубина : 16 бит
Метод сжатия : С потерями
Размер потока : 126 Мбайт (5%)
ServiceKind : Complete Main
Default : Да
Forced : Нет

piratbit.pw



Скачать Последний шанс через торрент http://c.radikal.ru/c23/1804/55/9f4187fee0f4.jpg Скачать фильм Последний шанс через торрент бесплантно в хорошем качестве Описание: Молодая перспективная журналистика Юлия в погоне за интересным материалом о готовящейся спецоперации ФСБ попадает в опасную ... 8.7 10 7
Торрент: Зарегистрирован [2018-04-30 07:22] · скачан: 140 раз
Статус: √ проверено
Размер: 2.69 GB
Как cкачать? Как скачать Последний шанс через торрент | qTorrent

% Раздел Тема Автор DL S | L
Видео для КПК и Смартфонов [ 350 MB ] Последний шанс [2017 WEB-DLRip КПК] sergey82 Скачать
1 | 0
Документальные фильмы и телепередачи [ 4.47 GB ] Последний шанс со Скалой Джонсоном / Rock and a Hard Place [2017 документальный HDTV 1080i] MVO [Амедиа] bober100 Скачать
1 | 0
Фильмы [HD 720p, 1080p] (Хороший звук DUB, MVO) [ 10.12 GB ] Последний шанс Харви / Last Chance Harvey [2008 BDRip 1080p by msltel] MVO DVO AVO msltel Скачать
1 | 0
Фильмы [HD 720p, 1080p] (Хороший звук DUB, MVO) [ 3.77 GB ] Последний шанс Харви / Last Chance Harvey [2008 BDRip 720p by msltel] MVO DVO AVO msltel Скачать
1 | 0
Фильмы с авторской озвучкой [ 1.45 GB ] Последний шанс Харви / Last Chance Harvey [2008 BDRip] [AVO] killermax2013 Скачать
1 | 0
Сборники отечественного шансона [ 699 MB ] VA - Последняя любовь 2014 / MP3 / 256 kbps / Шансон Авторская песня megatoxa Скачать
1 | 0
Фильмы 2006-2008 [ 1.45 GB ] Последний шанс Харви / Last Chance Harvey [2008 BDRip KEYS Скачать
1 | 0

28-11-2019 20:33  

Отключить всю рекламу на сайте

    Дорогой пользователь! Огромная просьба, поблагодарите релизера, оцените раздачу и оставьте свои комментарий, если Вы скачали Последний шанс через торрент бесплатно! Внесите свою лепту в развитие PiratBit!
    Комментировать посты могут только пользователи прошедшие не сложную регистрацию
    Показать сообщения:    

    Последний шанс через торрент
    Скачать бесплатно Последний шанс
    Последний шанс скачать торрент
    Последний шанс смотреть онлайн
    Cкачать фильм Последний шанс бесплатно
    Последний шанс скачать торрент в хорошем качестве
    Последний шанс смотреть онлайн бесплатно в хорошем качестве


    Вы не можете начинать темы
    Вы не можете отвечать на сообщения
    Вы не можете редактировать свои сообщения
    Вы не можете удалять свои сообщения
    Вы не можете голосовать в опросах
    Вы не можете прикреплять файлы к сообщениям
    Вы можете скачивать файлы