Marvel's Avengers Deluxe Edition (супер цена) 159р. Внимание количество ограничено!!!

2 сезон

iTunes

iTunes

1

iTunes

iTunes

iTunes

WEBRip

iTunes

30
pack

Новость дня

ВАЖНО

!!Акция!!

Alien_RageХит недели

RePack

Horizon Zero Dawn

ИГРА 18+

pack

RePack

jed

!!Акция!!

Alien_Rage

RePack

fifa19

RePack

Assassins Creed: Odyssey

RePack

NEED FOR SPEED™ PAYBACK

4 сезон

9 сезон

Бесстыжие 9 сезон

Все сериалы

все сериалы на PB.wtf

RePack

FAR CRY 5
  

Каникулы президента (Илья Шерстобитов) [2018, комедия, WEB-DL 720p] [iTunes] piratbit.pw

Каникулы президента через торрент piratbit.pw

Раздают: 2 [ 0 KB/s ]
Размер: 3.05 GB | Добавлен: 2 года 4 мес. назад | Торрент скачан:576 раз
Скачать  

30-04-2018 06:04 Каникулы президента Скачать торрент  

Каникулы президентаГод выпуска: 2018
Страна: Россия
Жанр: комедия
Продолжительность: 01:38:47
Перевод: Не требуется | iTunes
Субтитры: отсутствуют

Режиссер: Илья Шерстобитов

rating

В ролях:

Дмитрий Грачев, Анна Цуканова-Котт, Настасья Самбурская, Евгений Сидихин, Кирилл Васильев, Гоша Куценко, Дмитрий Дибров, Роза Хаируллина, Роман Попов, Владимир Носик

Описание:

Устав от рутины, Президент решает отправиться на каникулы в гордом одиночестве, чтобы отдохнуть в Крыму, а заодно свободно пообщаться с народом. Понимая, что остаться инкогнито и улизнуть от заботливых коллег будет сложно, он прибегает к услугам гримера. Но его новый облик точь-в-точь совпадает с наружностью Валерия из N-ска, который скрывается от коллекторов по путевке матери в крымском санатории...

Качество: WEB-DL 720p
Формат: MKV

Видео: 1280x534 (2,40:1), 23,976 fps, MPEG-4 AVC ~ 4028 kbps avg, 0.246 bit/pixel
Аудио: AC3, 48 kHz, 6 ch, ~384.00 kbps avg | русский | iTunes
скриншот  скриншот  скриншот  

Общее
Уникальный идентификатор : 228616270016157666866367541092781052366 (0xABFDE45B6941AC4A80BD3E185D1AD1CE)
Полное имя : D:\Kanikuly.prezidenta.2O18.O.WEB-DL.72Op.mkv
Формат : Matroska
Версия формата : Version 2
Размер файла : 3,05 Гбайт
Продолжительность : 1 ч. 38 м.
Общий поток : 4414 Кбит/сек
Дата кодирования : UTC 2018-04-29 18:34:19
Программа кодирования : mkvmerge v8.3.0 ('Over the Horizon') 64bit
Библиотека кодирования : libebml v1.3.1 + libmatroska v1.4.2

Видео
Идентификатор : 1
Формат : AVC
Формат/Информация : Advanced Video Codec
Профиль формата : Main@L3.1
Параметр CABAC формата : Нет
Параметр RefFrames формата : 2 кадра
Параметр GOP формата : N=1
Идентификатор кодека : V_MPEG4/ISO/AVC
Продолжительность : 1 ч. 38 м.
Битрейт : 4028 Кбит/сек
Ширина : 1280 пикселей
Высота : 534 пикселя
Соотношение сторон : 2,40:1
Режим частоты кадров : Постоянный
Частота кадров : 23,976 (24000/1001) кадра/сек
Цветовое пространство : YUV
Субдискретизация насыщенности : 4:2:0
Битовая глубина : 8 бит
Тип развёртки : Прогрессивная
Бит/(Пиксели*Кадры) : 0.246
Размер потока : 2,78 Гбайт (91%)
Язык : English
Default : Да
Forced : Нет
Цветовой диапазон : Limited
Основные цвета : BT.709
Характеристики трансфера : BT.709
Коэффициенты матрицы : BT.709

Аудио
Идентификатор : 2
Формат : AC-3
Формат/Информация : Audio Coding 3
Расширение режима : CM (complete main)
Параметр Endianness формата : Big
Идентификатор кодека : A_AC3
Продолжительность : 1 ч. 38 м.
Вид битрейта : Постоянный
Битрейт : 384 Кбит/сек
Каналы : 6 каналов
Расположение каналов : Front: L C R, Side: L R, LFE
Частота : 48,0 КГц
Частота кадров : 31,250 кадров/сек (1536 spf)
Метод сжатия : С потерями
Размер потока : 271 Мбайт (9%)
Язык : Russian
Default : Да
Forced : Нет

piratbit.pw



Скачать Каникулы президента через торрент http://img12.lostpic.net/2018/03/31/7c210615a49e3cb19eab33d1e90855a8.jpg Скачать фильм Каникулы президента через торрент бесплантно в хорошем качестве Описание: Устав от рутины, Президент решает отправиться на каникулы в гордом одиночестве, чтобы отдохнуть в Крыму, а заодно свободно ... 8.5 10 13
Торрент: Зарегистрирован [2018-04-30 06:04] · скачан: 576 раз
Статус: √ проверено
Размер: 3.05 GB
Как cкачать? Как скачать Каникулы президента через торрент | qTorrent

% Раздел Тема Автор DL S | L
Наши новые фильмы 2018-2019 [ 1.83 GB ] Каникулы президента [2018 WEB-DLRip-AVC] оригинал R.G.Generalfilm White Smoke Скачать
1 | 0
Наши новые фильмы 2018-2019 [ 1.46 GB ] Каникулы президента [2018 WEB-DLRip] bober100 Скачать
1 | 0
Наши фильмы (HD, WEB-DL 720p, 1080p) [ 3.4 GB ] Каникулы президента [2018 WEB-DL 1080p] bober100 Скачать
1 | 0
Наши новые фильмы 2018-2019 [ 1.65 GB ] Каникулы президента [2018 WEB-DLRip-AVC] - ExKinoRay Enigma2010 Скачать
1 | 0
Наши новые фильмы 2018-2019 [ 745 MB ] Каникулы президента [2018 WEB-DLRip] bober100 Скачать
1 | 0

28-11-2019 20:33  

Отключить всю рекламу на сайте

    Дорогой пользователь! Огромная просьба, поблагодарите релизера, оцените раздачу и оставьте свои комментарий, если Вы скачали Каникулы президента через торрент бесплатно! Внесите свою лепту в развитие PiratBit!
    Комментировать посты могут только пользователи прошедшие не сложную регистрацию
    Показать сообщения:    

    Каникулы президента через торрент
    Скачать бесплатно Каникулы президента
    Каникулы президента скачать торрент
    Каникулы президента смотреть онлайн
    Cкачать фильм Каникулы президента бесплатно
    Каникулы президента скачать торрент в хорошем качестве
    Каникулы президента смотреть онлайн бесплатно в хорошем качестве


    Вы не можете начинать темы
    Вы не можете отвечать на сообщения
    Вы не можете редактировать свои сообщения
    Вы не можете удалять свои сообщения
    Вы не можете голосовать в опросах
    Вы не можете прикреплять файлы к сообщениям
    Вы можете скачивать файлы