Marvel's Avengers Deluxe Edition (супер цена) 159р. Внимание количество ограничено!!!

2 сезон

iTunes

iTunes

1

iTunes

iTunes

iTunes

WEBRip

iTunes

30
pack

Новость дня

ВАЖНО

!!Акция!!

Alien_RageХит недели

RePack

Horizon Zero Dawn

ИГРА 18+

pack

RePack

jed

!!Акция!!

Alien_Rage

RePack

fifa19

RePack

Assassins Creed: Odyssey

RePack

NEED FOR SPEED™ PAYBACK

4 сезон

9 сезон

Бесстыжие 9 сезон

Все сериалы

все сериалы на PB.wtf

RePack

FAR CRY 5
  

Я худею (Алексей Нужный) [2018, комедия, WEB-DL 720p] [iTunes] piratbit.pw

Я худею через торрент piratbit.pw

Размер: 3.03 GB | Добавлен: 2 года 4 мес. назад | Торрент скачан:795 раз
Скачать  

25-04-2018 21:03 Я худею Скачать торрент  

Я худеюГод выпуска: 2018
Страна: Россия
Жанр: комедия
Продолжительность: 01:34:06
Перевод: Не требуется | iTunes
Субтитры: отсутствуют

Режиссер: Алексей Нужный

rating
В ролях:

Александра Бортич, Ирина Горбачева, Сергей Шнуров, Евгений Кулик, Роман Курцын, Александр Пташенчук, Елена Валюшкина, Валерия Дергилева, Андрей Трушин

Описание:

В жизни Ани есть две главные любви - её парень Женя и еда. Из-за еды они и расстаются: Жене совсем не нравится, как Аня стала выглядеть. Аня не готова просто сдаться. При поддержке лучшей подруги и увлечённого здоровым образом жизни добряка Коли она пускается в увлекательное приключение, чтобы похудеть и обрести любовь и счастье.

Качество: WEB-DL 1080p
Формат: MKV

Видео: MPEG-4 AVC, 3938 Кбит/с, 960x536
Аудио: AC3, 6 ch, 384 Кбит/с
скриншот   скриншот   скриншот  

Общее
Уникальный идентификатор : 173188284575860005023745207134169100619 (0x824AD9AF1B63F426B852110F0B58714B)
Полное имя : D:\Y4.Xyd3jy.2O18.O.WEB-DL.72Op.mkv
Формат : Matroska
Версия формата : Version 2
Размер файла : 3,03 Гбайт
Продолжительность : 1 ч. 38 м.
Общий поток : 4410 Кбит/сек
Дата кодирования : UTC 2018-04-25 18:22:02
Программа кодирования : mkvmerge v8.3.0 ('Over the Horizon') 64bit
Библиотека кодирования : libebml v1.3.1 + libmatroska v1.4.2

Видео
Идентификатор : 1
Формат : AVC
Формат/Информация : Advanced Video Codec
Профиль формата : Main@L3.1
Параметр CABAC формата : Нет
Параметр RefFrames формата : 2 кадра
Идентификатор кодека : V_MPEG4/ISO/AVC
Продолжительность : 1 ч. 38 м.
Битрейт : 3938 Кбит/сек
Ширина : 960 пикселей
Высота : 536 пикселей
Соотношение сторон : 2,40:1
Режим частоты кадров : Постоянный
Частота кадров : 25,000 кадров/сек
Цветовое пространство : YUV
Субдискретизация насыщенности : 4:2:0
Битовая глубина : 8 бит
Тип развёртки : Прогрессивная
Бит/(Пиксели*Кадры) : 0.306
Размер потока : 2,71 Гбайт (89%)
Язык : English
Default : Да
Forced : Нет
Цветовой диапазон : Limited
Основные цвета : BT.709
Характеристики трансфера : BT.709
Коэффициенты матрицы : BT.709

Аудио
Идентификатор : 2
Формат : AC-3
Формат/Информация : Audio Coding 3
Расширение режима : CM (complete main)
Параметр Endianness формата : Big
Идентификатор кодека : A_AC3
Продолжительность : 1 ч. 38 м.
Вид битрейта : Постоянный
Битрейт : 384 Кбит/сек
Каналы : 6 каналов
Расположение каналов : Front: L C R, Side: L R, LFE
Частота : 48,0 КГц
Частота кадров : 31,250 кадров/сек (1536 spf)
Метод сжатия : С потерями
Размер потока : 270 Мбайт (9%)
Язык : Russian
Default : Да
Forced : Нет

Меню
00:00:00.000 : en:Глава 1
00:07:05.200 : en:Глава 2
00:15:08.160 : en:Глава 3
00:22:09.760 : en:Глава 4
00:29:00.280 : en:Глава 5
00:36:41.960 : en:Глава 6
00:43:20.520 : en:Глава 7
00:51:15.240 : en:Глава 8
00:58:42.640 : en:Глава 9
01:06:14.120 : en:Глава 10
01:13:24.240 : en:Глава 11
01:20:43.280 : en:Глава 12
01:27:54.240 : en:Глава 13

piratbit.pw



Скачать Я худею через торрент http://i104.fastpic.ru/big/2018/0426/50/a847d52555cfc8d804268b0bd7e91750.jpg Скачать фильм Я худею через торрент бесплантно в хорошем качестве Описание: В жизни Ани есть две главные любви - её парень Женя и еда. Из-за еды они и расстаются: Жене совсем не нравится, как Аня стала ... 9.9 10 14
Info! Золотая раздача, скачанное не засчитывается.
Торрент: Зарегистрирован [2018-04-25 21:03] · скачан: 795 раз
Статус: √ проверено
Размер: 3.03 GB
Как cкачать? Как скачать Я худею через торрент | qTorrent

% Раздел Тема Автор DL S | L
Клипы [ 143 MB ] Cosmos Girls - Я худею [клип] [2019 Поп WEBRip 1080p] bober100 Скачать
1 | 0
Наши фильмы (HD, WEB-DL 720p, 1080p) [ 8.71 GB ] Я худею [2018 BDRip 1080p] [] bober100 Скачать
2 | 0
Наши новые фильмы 2018-2019 [ 1.46 GB ] Я худею [2018 BDRip] [Русский] [] Twi7ter Скачать
3 | 0
Наши фильмы (Blu-ray, BD-Remux, HDDVD) [ 22.11 GB ] Я худею [2018 BD Remux 1080p] [] bober100 Скачать
1 | 0
Наши фильмы (Blu-ray, BD-Remux, HDDVD) [ 23.26 GB ] Я худею [2018 Blu-ray RUS 1080p] [] bober100 Скачать
1 | 0
Наши новые фильмы 2018-2019 [ 1.7 GB ] Я худею [2018 HDRip-AVC] [] - ExKinoRay Enigma2010 Скачать
2 | 0
Наши новые фильмы 2018-2019 [ 745 MB ] Я худею [2018 HDRip] [] bober100 Скачать
1 | 0

28-11-2019 20:33  

Отключить всю рекламу на сайте

    Дорогой пользователь! Огромная просьба, поблагодарите релизера, оцените раздачу и оставьте свои комментарий, если Вы скачали Я худею через торрент бесплатно! Внесите свою лепту в развитие PiratBit!
    Комментировать посты могут только пользователи прошедшие не сложную регистрацию
    Показать сообщения:    

    Я худею через торрент
    Скачать бесплатно Я худею
    Я худею скачать торрент
    Я худею смотреть онлайн
    Cкачать фильм Я худею бесплатно
    Я худею скачать торрент в хорошем качестве
    Я худею смотреть онлайн бесплатно в хорошем качестве


    Вы не можете начинать темы
    Вы не можете отвечать на сообщения
    Вы не можете редактировать свои сообщения
    Вы не можете удалять свои сообщения
    Вы не можете голосовать в опросах
    Вы не можете прикреплять файлы к сообщениям
    Вы можете скачивать файлы