Marvel's Avengers Deluxe Edition (супер цена) 159р. Внимание количество ограничено!!!

2 сезон

iTunes

iTunes

1

iTunes

iTunes

iTunes

WEBRip

iTunes

30
pack

Новость дня

ВАЖНО

!!Акция!!

Alien_RageХит недели

RePack

Horizon Zero Dawn

ИГРА 18+

pack

RePack

jed

!!Акция!!

Alien_Rage

RePack

fifa19

RePack

Assassins Creed: Odyssey

RePack

NEED FOR SPEED™ PAYBACK

4 сезон

9 сезон

Бесстыжие 9 сезон

Все сериалы

все сериалы на PB.wtf

RePack

FAR CRY 5
  

Смурфики: Затерянная деревня / Smurfs: The Lost Village (Келли Эсбёри) [2017, Мультфильм, фэнтези, комедия, приключения, семейный, UHD BDRemux 2160p] DUB (rus, ukr) [Лицензия] piratbit.pw

Смурфики: Затерянная деревня через торрент piratbit.pw

Размер: 51.11 GB | Добавлен: 2 года 5 мес. назад | Торрент скачан:5 раз
Скачать  

16-04-2018 17:44 Смурфики: Затерянная деревня Скачать торрент  

Смурфики: Затерянная деревня / Smurfs: The Lost Village
Год выпуска: 2017
Страна: США
Жанр: Мультфильм, фэнтези, комедия, приключения, семейный
Продолжительность: 01:29:46
Перевод: Дублированный | Лицензия
Субтитры: Russian (Forced, Full), Ukrainian (Forced), English (Forced, Full, Commentary)

Режиссер: Келли Эсбёри

rating

В ролях:

Ариэль Уинтер, Джо Манганьелло, Мишель Родригес, Джулия Робертс, Элли Кемпер, Мэнди Пэтинкин, Рэйн Уилсон, Деми Ловато, Джейк Джонсон, Джек МакБрайер

Описание:

Смурфетта и её лучшие друзья, Умник, Растяпа и Силач, отправляются на поиски таинственной затерянной деревни, стремясь опередить злобного волшебника Гаргамеля. В пути смурфиков ожидают невероятные опасности и головокружительные приключения, но игра стоит свеч, ведь в конечном итоге герои смогут разгадать самую большую загадку в истории своего существования

Видео: HEVC, 59.9 Мбит/сек, 3840x2160, 23.976 кадр/с
Аудио#1: |RUS| DTS-HD MA, 48.0 kHz, 6 ch, 4 529 kb/s | Дублированный |
Аудио#2: |RUS| AC-3, 48.0 kHz, 6 ch, 640 kb/s, CBR | Дублированный |
Аудио#3: |UKR| AC-3, 48.0 kHz, 6 ch, 640 kb/s, CBR | Дублированный |
Аудио#4: |ENG| TrueHD+Atmos, 48.0 kHz, 8 ch, 4 697 kb/s | Original |
Аудио#5: |ENG| AC-3, 48.0 kHz, 6 ch, 640 kb/s, CBR | Original, AC3 Core |
скриншот  скриншот  скриншот  скриншот  скриншот  скриншот  

Общее
Уникальный идентификатор : 45538477386256526444620770534393035443 (0x22426447E497DF48786F376CE3B6BAB3)
Полное имя : The.Smurfs.2011.UHD.BDRemux.2160p.HEVC.HDR.IVA(RUS.UKR.ENG).ExKinoRay.mkv
Формат : Matroska
Версия формата : Version 4 / Version 2
Размер файла : 51,1 Гбайт
Продолжительность : 1 ч. 42 м.
Режим общего битрейта : Переменный
Общий поток : 71,1 Мбит/сек
Название фильма : Смурфики / The Smurfs ( 2011 ) BDRemux | HDR, 4K | IVA(RUS.UKR.ENG) | ExKinoRay
Дата кодирования : UTC 2018-04-16 14:44:02
Программа кодирования : mkvmerge v22.0.0 ('At The End Of The World') 64-bit
Библиотека кодирования : libebml v1.3.5 + libmatroska v1.4.8
Обложка : Yes

Видео
Идентификатор : 1
Формат : HEVC
Формат/Информация : High Efficiency Video Coding
Коммерческое название : HDR10
Профиль формата : Main 10@L5.1@High
Идентификатор кодека : V_MPEGH/ISO/HEVC
Продолжительность : 1 ч. 42 м.
Битрейт : 59,9 Мбит/сек
Ширина : 3840 пикселей
Высота : 2160 пикселей
Соотношение сторон : 16:9
Режим частоты кадров : Постоянный
Частота кадров : 23,976 (24000/1001) кадра/сек
Цветовое пространство : YUV
Субдискретизация насыщенности : 4:2:0 (Type 2)
Битовая глубина : 10 бит
Бит/(Пиксели*Кадры) : 0.301
Размер потока : 43,0 Гбайт (84%)
Заголовок : MPEG-H HEVC Video / 59939 kbps / 2160p / HDR / BT.2020
Язык : English
Default : Да
Forced : Нет
Цветовой диапазон : Limited
Основные цвета : BT.2020
Характеристики трансфера : PQ
Коэффициенты матрицы : BT.2020 non-constant
MasteringDisplay_ColorPrimaries : BT.709
MasteringDisplay_Luminance : min: 0.0050 cd/m2, max: 4000 cd/m2
MaxCLL : 1333 cd/m2
MaxFALL : 472 cd/m2

Аудио #1
Идентификатор : 2
Формат : DTS
Формат/Информация : Digital Theater Systems
Профиль формата : MA / Core
Идентификатор кодека : A_DTS
Продолжительность : 1 ч. 42 м.
Вид битрейта : Переменный / Постоянный
Битрейт : 4529 Кбит/сек / 1509 Кбит/сек
Каналы : 6 каналов
Расположение каналов : Front: L C R, Side: L R, LFE
Частота : 48,0 КГц
Частота кадров : 93,750 кадра/сек (512 SPF)
Битовая глубина : 24 бит
Метод сжатия : Без потерь / Lossy
Размер потока : 3,26 Гбайт (6%)
Заголовок : | Дублированный |
Язык : Russian
Default : Да
Forced : Нет

Аудио #2
Идентификатор : 3
Формат : AC-3
Формат/Информация : Audio Coding 3
Идентификатор кодека : A_AC3
Продолжительность : 1 ч. 42 м.
Вид битрейта : Постоянный
Битрейт : 640 Кбит/сек
Каналы : 6 каналов
Расположение каналов : Front: L C R, Side: L R, LFE
Частота : 48,0 КГц
Частота кадров : 31,250 кадров/сек (1536 SPF)
Битовая глубина : 16 бит
Метод сжатия : С потерями
Размер потока : 470 Мбайт (1%)
Заголовок : | Дублированный |
Язык : Russian
ServiceKind : Complete Main
Default : Нет
Forced : Нет

Аудио #3
Идентификатор : 4
Формат : AC-3
Формат/Информация : Audio Coding 3
Идентификатор кодека : A_AC3
Продолжительность : 1 ч. 42 м.
Вид битрейта : Постоянный
Битрейт : 640 Кбит/сек
Каналы : 6 каналов
Расположение каналов : Front: L C R, Side: L R, LFE
Частота : 48,0 КГц
Частота кадров : 31,250 кадров/сек (1536 SPF)
Битовая глубина : 16 бит
Метод сжатия : С потерями
Размер потока : 470 Мбайт (1%)
Заголовок : | Дублированный |
Язык : Ukrainian
ServiceKind : Complete Main
Default : Нет
Forced : Нет

Аудио #4
Идентификатор : 5
Формат : TrueHD
Профиль формата : TrueHD+Atmos / TrueHD
Идентификатор кодека : A_TRUEHD
Продолжительность : 1 ч. 42 м.
Вид битрейта : Переменный
Битрейт : 4697 Кбит/сек
Максимальный битрейт : 8220 Кбит/сек
Каналы : Object Based / 8 каналов
Расположение каналов : Object Based / Front: L C R, Side: L R, Back: L R, LFE
Частота : / 48,0 КГц
Частота кадров : 1200,000 кадров/сек (40 SPF)
Метод сжатия : Без потерь
Размер потока : 3,37 Гбайт (7%)
Заголовок : | Original |
Язык : English
Default : Нет
Forced : Нет

Аудио #5
Идентификатор : 6
Формат : AC-3
Формат/Информация : Audio Coding 3
Идентификатор кодека : A_AC3
Продолжительность : 1 ч. 42 м.
Вид битрейта : Постоянный
Битрейт : 640 Кбит/сек
Каналы : 6 каналов
Расположение каналов : Front: L C R, Side: L R, LFE
Частота : 48,0 КГц
Частота кадров : 31,250 кадров/сек (1536 SPF)
Битовая глубина : 16 бит
Метод сжатия : С потерями
Размер потока : 470 Мбайт (1%)
Заголовок : | Original, AC3 Core |
Язык : English
ServiceKind : Complete Main
Default : Нет
Forced : Нет

Текст #1
Идентификатор : 7
Формат : UTF-8
Идентификатор кодека : S_TEXT/UTF8
Идентификатор кодека/Информация : UTF-8 Plain Text
Продолжительность : 1 ч. 33 м.
Битрейт : 0 бит/сек
ElementCount : 4
Размер потока : 181 байт (0%)
Заголовок : Forced
Язык : Russian
Default : Нет
Forced : Да

Текст #2
Идентификатор : 8
Формат : UTF-8
Идентификатор кодека : S_TEXT/UTF8
Идентификатор кодека/Информация : UTF-8 Plain Text
Продолжительность : 1 ч. 35 м.
Битрейт : 97 бит/сек
ElementCount : 1781
Размер потока : 68,2 Кбайт (0%)
Заголовок : Full
Язык : Russian
Default : Нет
Forced : Нет

Текст #3
Идентификатор : 9
Формат : UTF-8
Идентификатор кодека : S_TEXT/UTF8
Идентификатор кодека/Информация : UTF-8 Plain Text
Продолжительность : 1 ч. 33 м.
Битрейт : 0 бит/сек
ElementCount : 4
Размер потока : 190 байт (0%)
Заголовок : Forced
Язык : Ukrainian
Default : Нет
Forced : Да

Текст #4
Идентификатор : 10
Формат : UTF-8
Идентификатор кодека : S_TEXT/UTF8
Идентификатор кодека/Информация : UTF-8 Plain Text
Продолжительность : 1 с. 600 мс.
Битрейт : 65 бит/сек
ElementCount : 1
Размер потока : 13,0 байт (0%)
Заголовок : Forced
Язык : English
Default : Нет
Forced : Да

Текст #5
Идентификатор : 11
Формат : UTF-8
Идентификатор кодека : S_TEXT/UTF8
Идентификатор кодека/Информация : UTF-8 Plain Text
Продолжительность : 1 ч. 35 м.
Битрейт : 76 бит/сек
ElementCount : 1543
Размер потока : 53,4 Кбайт (0%)
Заголовок : Full
Язык : English
Default : Нет
Forced : Нет

Текст #6
Идентификатор : 12
Формат : UTF-8
Идентификатор кодека : S_TEXT/UTF8
Идентификатор кодека/Информация : UTF-8 Plain Text
Продолжительность : 1 ч. 42 м.
Битрейт : 200 бит/сек
ElementCount : 1953
Размер потока : 151 Кбайт (0%)
Заголовок : Commentary 1
Язык : English
Default : Нет
Forced : Нет

Текст #7
Идентификатор : 13
Формат : UTF-8
Идентификатор кодека : S_TEXT/UTF8
Идентификатор кодека/Информация : UTF-8 Plain Text
Продолжительность : 1 ч. 37 м.
Битрейт : 161 бит/сек
ElementCount : 1726
Размер потока : 115 Кбайт (0%)
Заголовок : Commentary 2
Язык : English
Default : Нет
Forced : Нет

Текст #8
Идентификатор : 14
Формат : PGS
Идентификатор кодека : S_HDMV/PGS
Идентификатор кодека/Информация : Picture based subtitle format used on BDs/HD-DVDs
Продолжительность : 1 ч. 41 м.
Битрейт : 55,4 Кбит/сек
ElementCount : 4024
Размер потока : 40,2 Мбайт (0%)
Заголовок : SDH
Язык : English
Default : Нет
Forced : Нет

Меню
00:00:00.000 : en:Chapter 1
00:04:50.207 : en:Chapter 2
00:11:23.766 : en:Chapter 3
00:18:30.776 : en:Chapter 4
00:23:45.591 : en:Chapter 5
00:29:26.098 : en:Chapter 6
00:35:04.352 : en:Chapter 7
00:40:57.288 : en:Chapter 8
00:46:06.472 : en:Chapter 9
00:53:24.451 : en:Chapter 10
00:59:30.942 : en:Chapter 11
01:03:44.195 : en:Chapter 12
01:08:17.552 : en:Chapter 13
01:12:54.704 : en:Chapter 14
01:20:38.542 : en:Chapter 15
01:30:52.739 : en:Chapter 16

piratbit.pw



Скачать Смурфики: Затерянная деревня через торрент http://i91.fastpic.ru/big/2017/0908/48/5f1075d5d373de99f62fd81f0a4b0b48.jpg Скачать фильм Смурфики: Затерянная деревня через торрент бесплантно в хорошем качестве Описание: Смурфетта и её лучшие друзья, Умник, Растяпа и Силач, отправляются на поиски таинственной затерянной деревни, стремясь опередить ... 7 10 3
Info! Золотая раздача, скачанное не засчитывается.
Торрент: Зарегистрирован [2018-04-16 17:44] · скачан: 5 раз
Статус: √ проверено
Размер: 51.11 GB
Как cкачать? Как скачать Смурфики: Затерянная деревня через торрент | qTorrent

% Раздел Тема Автор DL S | L
Ultra HD (UHD: 2K, 4K, 8K) [ 53.67 GB ] Смурфики: Затерянная деревня / Smurfs: The Lost Village [2017 Мультфильм UHD Blu-ray 2160p] DUB [] bober100 Скачать
1 | 0
Зарубежные Мультфильмы (BDRip 1080p, 720p, Blu-ray, BD-Remux) [ 19.4 GB ] Смурфики: Затерянная деревня / Smurfs: The Lost Village [2017 Мультфильм BD Remux 1080p] DUB [] bober100 Скачать
1 | 0
3D Мультфильмы [ 11.72 GB ] Смурфики: Затерянная деревня в 3Д / Smurfs: The Lost Village 3D [2017 Мультфильм Семейны BDrip 1080p] OverUnder / Вертикальная стереопара serega768 Скачать
1 | 0
Иностранные мультфильмы [ 1.46 GB ] Смурфики: Затерянная деревня / Smurfs: The Lost Village [2017 мультфильм BDRip] - [] Twi7ter Скачать
2 | 0
Иностранные мультфильмы [ 2.16 GB ] Смурфики: Затерянная деревня / Smurfs: The Lost Village [2017 мультфильм HDRip-AVC] 2xDUB [] - ExKinoRay Enigma2010 Скачать
3 | 0
Зарубежные Мультфильмы (BDRip 1080p, 720p, Blu-ray, BD-Remux) [ 11.54 GB ] Смурфики: Затерянная деревня / Smurfs: The Lost Village [2017 Мультфильм BDRip 1080p] DUB [ Blu-ray CEE] bober100 Скачать
1 | 0
Зарубежные Мультфильмы (BDRip 1080p, 720p, Blu-ray, BD-Remux) [ 6.18 GB ] Смурфики: Затерянная деревня / Smurfs: The Lost Village [2017 Мультфильм BDRip 720p] DUB [ Blu-ray CEE] bober100 Скачать
1 | 0

28-11-2019 20:33  

Отключить всю рекламу на сайте

    Дорогой пользователь! Огромная просьба, поблагодарите релизера, оцените раздачу и оставьте свои комментарий, если Вы скачали Смурфики: Затерянная деревня через торрент бесплатно! Внесите свою лепту в развитие PiratBit!
    Комментировать посты могут только пользователи прошедшие не сложную регистрацию
    Показать сообщения:    

    Смурфики: Затерянная деревня через торрент
    Скачать бесплатно Смурфики: Затерянная деревня
    Смурфики: Затерянная деревня скачать торрент
    Смурфики: Затерянная деревня смотреть онлайн
    Cкачать фильм Смурфики: Затерянная деревня бесплатно
    Смурфики: Затерянная деревня скачать торрент в хорошем качестве
    Смурфики: Затерянная деревня смотреть онлайн бесплатно в хорошем качестве


    Вы не можете начинать темы
    Вы не можете отвечать на сообщения
    Вы не можете редактировать свои сообщения
    Вы не можете удалять свои сообщения
    Вы не можете голосовать в опросах
    Вы не можете прикреплять файлы к сообщениям
    Вы можете скачивать файлы