Marvel's Avengers Deluxe Edition (супер цена) 159р. Внимание количество ограничено!!!

2 сезон

iTunes

iTunes

1

iTunes

iTunes

iTunes

WEBRip

iTunes

30
pack

Новость дня

ВАЖНО

!!Акция!!

Alien_RageХит недели

RePack

Horizon Zero Dawn

ИГРА 18+

pack

RePack

jed

!!Акция!!

Alien_Rage

RePack

fifa19

RePack

Assassins Creed: Odyssey

RePack

NEED FOR SPEED™ PAYBACK

4 сезон

9 сезон

Бесстыжие 9 сезон

Все сериалы

все сериалы на PB.wtf

RePack

FAR CRY 5
  

Рубеж (Дмитрий Тюрин) [2018, фантастика, приключения, военный, история, драма, WEB-DL 720p] [iTunes] piratbit.pw

Рубеж через торрент piratbit.pw

Размер: 2.96 GB | Добавлен: 2 года 5 мес. назад | Торрент скачан:536 раз
Скачать  

04-04-2018 23:19 Рубеж Скачать торрент  

Рубеж
Год выпуска: 2018
Страна: Россия
Жанр: фантастика, приключения, военный, история, драма
Продолжительность: 01:35:53
Перевод: Не требуется | iTunes
Субтитры: отсутствуют

Режиссер: Дмитрий Тюрин



В ролях:

Павел Прилучный, Станислав Дужников, Кристина Бродская, Александр Коршунов, Виктор Добронравов, Игорь Скляр, Дмитрий Куличков, Александр Соколовский, Семен Трескунов, Кирилл Кяро

Описание:

У Михаила есть всё. Всё, кроме любви, и его это устраивает. Но вот он встречает ЕЁ, и всё, чего он добился в этой жизни, рушится в один миг. Не все умеют любить. Не каждому дано любить... Чтобы обрести право на любовь, Михаил получает возможность перемещаться во времени. Туда, где нет кредиток и гаджетов, где гибнут миллионы людей, и превращаются в руины города. Теперь, чтобы не сойти с ума и остаться в настоящем, ему придется принять правила опасного экзистенциального квеста.

Качество: WEB-DL 720p
Формат: MKV

Видео: MPEG-4 AVC, 4030 kb/s, 960x536
Аудио: AC3, 384 kb/s (6 ch)
скриншот   скриншот   скриншот  

Общее
Уникальный идентификатор : 205108001984462776007036358154687242081 (0x9A4E5D41D10B88F4B1355F27858E5F61)
Полное имя : D:\Py63zh.2O17.O.WeB-DL.72Op.mkv
Формат : Matroska
Версия формата : Version 2
Размер файла : 2,96 Гбайт
Продолжительность : 1 ч. 35 м.
Общий поток : 4416 Кбит/сек
Дата кодирования : UTC 2018-04-04 20:28:42
Программа кодирования : mkvmerge v8.3.0 ('Over the Horizon') 64bit
Библиотека кодирования : libebml v1.3.1 + libmatroska v1.4.2

Видео
Идентификатор : 1
Формат : AVC
Формат/Информация : Advanced Video Codec
Профиль формата : Main@L3.1
Параметр CABAC формата : Нет
Параметр RefFrames формата : 2 кадра
Идентификатор кодека : V_MPEG4/ISO/AVC
Продолжительность : 1 ч. 35 м.
Битрейт : 4030 Кбит/сек
Ширина : 960 пикселей
Высота : 536 пикселей
Соотношение сторон : 2,40:1
Режим частоты кадров : Постоянный
Частота кадров : 25,000 кадров/сек
Цветовое пространство : YUV
Субдискретизация насыщенности : 4:2:0
Битовая глубина : 8 бит
Тип развёртки : Прогрессивная
Бит/(Пиксели*Кадры) : 0.307
Размер потока : 2,64 Гбайт (89%)
Язык : English
Default : Да
Forced : Нет
Цветовой диапазон : Limited
Основные цвета : BT.709
Характеристики трансфера : BT.709
Коэффициенты матрицы : BT.709

Аудио
Идентификатор : 2
Формат : AC-3
Формат/Информация : Audio Coding 3
Расширение режима : CM (complete main)
Параметр Endianness формата : Big
Идентификатор кодека : A_AC3
Продолжительность : 1 ч. 35 м.
Вид битрейта : Постоянный
Битрейт : 384 Кбит/сек
Каналы : 6 каналов
Расположение каналов : Front: L C R, Side: L R, LFE
Частота : 48,0 КГц
Частота кадров : 31,250 кадров/сек (1536 spf)
Метод сжатия : С потерями
Размер потока : 263 Мбайт (9%)
Язык : Russian
Default : Да
Forced : Нет

Меню
00:00:00.000 : en:Глава 1
00:07:17.360 : en:Глава 2
00:11:06.920 : en:Глава 3
00:17:40.360 : en:Глава 4
00:23:25.880 : en:Глава 5
00:31:33.520 : en:Глава 6
00:39:14.280 : en:Глава 7
00:45:46.200 : en:Глава 8
00:50:54.520 : en:Глава 9
00:57:15.960 : en:Глава 10
01:03:28.240 : en:Глава 11
01:09:44.400 : en:Глава 12
01:15:47.480 : en:Глава 13
01:20:43.280 : en:Глава 14
01:26:50.680 : en:Глава 15

piratbit.pw



Скачать Рубеж через торрент http://pic1.kartinco.top/images/11/f6yqk.jpg Скачать фильм Рубеж через торрент бесплантно в хорошем качестве Описание: У Михаила есть всё. Всё, кроме любви, и его это устраивает. Но вот он встречает ЕЁ, и всё, чего он добился в этой жизни, рушится ... 9.9 10 16
Торрент: Зарегистрирован [2018-04-04 23:19] · скачан: 536 раз
Статус: √ проверено
Размер: 2.96 GB
Как cкачать? Как скачать Рубеж через торрент | qTorrent

% Раздел Тема Автор DL S | L
3D Фильмы [ 11.38 GB ] Тихоокеанский рубеж 3D / Pacific Rim 3D [ 2013 BDRip ] Half OverUnder GEKADOL Скачать
1 | 1
Фильмы (Blu-ray, BD-Remux, HDDVD) [ 27.47 GB ] Тихоокеанский рубеж / Pacific Rim [2013 BD-Remux [Цифровая лицензия/]] MihailHD Скачать
1 | 0
Фильмы 2013 [DVDrip, WEB-DLRip, HDrip] [ 1.37 GB ] Тихоокеанский рубеж / Pacific Rim [2013 HDRip [Цифровая лицензия/]] MihailHD Скачать
1 | 0
Наши фильмы, до 2010 [ 2.05 GB ] Днепровский рубеж [2009 военный история DVDRip лицензия] SD Скачать
1 | 0
Eurodance, Technopop, Disco (сборники) (mp3) [ 623 MB ] VA - Зарубежные хиты 80-х в ремиксах - 2012 / MP3 / 320 kbps / Disco Pop Dance sdolotov Скачать
1 | 0
Фильмы 2013 [DVDrip, WEB-DLRip, HDrip] [ 2.18 GB ] Тихоокеанский рубеж / Pacific Rim [2013 HDRip ] кэп Скачать
1 | 0
3D Фильмы [ 27.53 GB ] Тиxоокеанский рубеж в 3Д / Pаcific Rim 3D [2013 BDrip 1080p]Full OverUnder / Вертикальная стереопара serega768 Скачать
1 | 1

28-11-2019 20:33  

Отключить всю рекламу на сайте

05-04-2018 16:30 Рубеж Скачать торрент  

Неплохой фильм. Мне понравился.piratbit.pw



    Дорогой пользователь! Огромная просьба, поблагодарите релизера, оцените раздачу и оставьте свои комментарий, если Вы скачали Рубеж через торрент бесплатно! Внесите свою лепту в развитие PiratBit!
    Комментировать посты могут только пользователи прошедшие не сложную регистрацию
    Показать сообщения:    

    Рубеж через торрент
    Скачать бесплатно Рубеж
    Рубеж скачать торрент
    Рубеж смотреть онлайн
    Cкачать фильм Рубеж бесплатно
    Рубеж скачать торрент в хорошем качестве
    Рубеж смотреть онлайн бесплатно в хорошем качестве


    Вы не можете начинать темы
    Вы не можете отвечать на сообщения
    Вы не можете редактировать свои сообщения
    Вы не можете удалять свои сообщения
    Вы не можете голосовать в опросах
    Вы не можете прикреплять файлы к сообщениям
    Вы можете скачивать файлы