Ссылка на приватное зеркало нашего сайта всего за 1$. Внимание количество ограничено!!!

2 сезон

iTunes

1 сезон

1

2 сезон

2 сезон

iTunes

1 сезон

RePack

30

Ultimate

ВАЖНО

ИГРА 18+

pack

RePack

MK11
pack

Забери бонус

RePack

jed

!!Акция!!

Alien_Rage

RePack

fifa19

RePack

Assassins Creed: Odyssey

RePack

NEED FOR SPEED™ PAYBACK

4 сезон

9 сезон

Бесстыжие 9 сезон

Все сериалы

все сериалы на PB.wtf

RePack

FAR CRY 5
  

Теория большого взрыва / The Big Bang Theory / Сезон: 11 / Серии: 1-24 из 24 (Марк Сендроуски, Питер Чакос) [2017, Ситком, комедия, WEB-DL 720p] VO [Кураж-Бамбей] piratbit.pw

Теория большого взрыва через торрент piratbit.pw

Размер: 16.15 GB | Добавлен: 2 года 6 мес. назад | Торрент скачан:202 раза
Скачать  

02-04-2018 17:06 Теория большого взрыва Скачать торрент  

Теория большого взрыва / The Big Bang TheoryГод выпуска: 2017
Страна: США
Жанр: Ситком, комедия
Продолжительность: ~ 00:21:00
Перевод: Профессиональный (одноголосый) | Кураж-Бамбей
Субтитры: Русские, английские

Режиссер: Марк Сендроуски, Питер Чакос, Энтони Джозеф Рич

rating

В ролях:

Джонни Галэки, Джим Парсонс, Кейли Куоко, Саймон Хелберг, Кунал Найяр, Майем Биалик, Мелисса Рауш, Кэрол Энн Сьюзи, Кевин Суссман, Арти Манн, Брайан Джордж, Элис Эмтер, Сара Гилберт, Джон Росс Боуи, Уил Уитон, Лори Меткаф, Верни Уотсон-Джонсон, Кристин Барански, Джошуа Малина, Кейси Сэндер, Кэти Леклерк

Описание:

Два блестящих физика, Леонард и Шелдон, считают себя «великими умами». Но их гениальность ничуть не помогает им общаться с людьми, особенно с женщинами. Всё начинает меняться, когда напротив них поселяется блондинка Пенни. Леонард начинает интересоваться ею, однако Шелдон понимает, что мечтам его друга не суждено сбыться («Вы с ней два разных биологических вида»). У главных героев есть странные друзья: Говард Воловиц, любящий употреблять фразы на шести разных языках, включая русский, и Раджеш Кутрапали, который не может ни слова сказать девушкам, если не выпьет хотя бы немного алкоголя.

Качество: WEB-DL 720p
Формат: MKV

Видео: 1280x720 at 23.976 fps, MPEG-4 AVC, ~3000 kbps avg
Аудио#1: Russian: 48 kHz, AC3, 3/2 (L,C,R,l,r) + LFE ch, ~384 kbps avg |Одноголосый закадровый, Кураж-Бамбей|
Аудио#2: English: 48 kHz, EAC3, 3/2 (L,C,R,l,r) + LFE ch, ~640 kbps avg


скриншот  
скриншот   скриншот   скриншот   скриншот  

Общее
Уникальный идентификатор : 209208127950002418961294334198547214624 (0x9D6405131B9330DDA9239C27B74BF120)
Полное имя : D:\The_Big_Bang_Theory_(s11)_720p_KB\The.Big.Bang.Theory.s11e01.WEB-DLRip.720p.mkv
Формат : Matroska
Версия формата : Version 4 / Version 2
Размер файла : 594 Мбайт
Продолжительность : 20 м. 36 с.
Режим общего битрейта : Переменный
Общий поток : 4034 Кбит/сек
Дата кодирования : UTC 2018-01-22 11:29:05
Программа кодирования : mkvmerge v18.0.0 ('Apricity') 64-bit
Библиотека кодирования : libebml v1.3.5 + libmatroska v1.4.8

Видео
Идентификатор : 1
Формат : AVC
Формат/Информация : Advanced Video Codec
Профиль формата : High@L3.1
Параметр CABAC формата : Да
Параметр RefFrames формата : 5 кадров
Идентификатор кодека : V_MPEG4/ISO/AVC
Продолжительность : 20 м. 36 с.
Вид битрейта : Переменный
Битрейт : 2930 Кбит/сек
Максимальный битрейт : 4500 Кбит/сек
Ширина : 1280 пикселей
Высота : 720 пикселей
Соотношение сторон : 16:9
Режим частоты кадров : Постоянный
Частота кадров : 23,976 (24000/1001) кадра/сек
Цветовое пространство : YUV
Субдискретизация насыщенности : 4:2:0
Битовая глубина : 8 бит
Тип развёртки : Прогрессивная
Бит/(Пиксели*Кадры) : 0.133
Размер потока : 432 Мбайт (73%)
Default : Да
Forced : Нет
Цветовой диапазон : Limited
Основные цвета : BT.709
Характеристики трансфера : BT.709
Коэффициенты матрицы : BT.709

Аудио #1
Идентификатор : 2
Формат : AC-3
Формат/Информация : Audio Coding 3
Расширение режима : CM (complete main)
Параметр Endianness формата : Big
Идентификатор кодека : A_AC3
Продолжительность : 20 м. 36 с.
Вид битрейта : Постоянный
Битрейт : 384 Кбит/сек
Каналы : 6 каналов
Расположение каналов : Front: L C R, Side: L R, LFE
Частота : 48,0 КГц
Частота кадров : 31,250 кадров/сек (1536 spf)
Метод сжатия : С потерями
Размер потока : 56,6 Мбайт (10%)
Заголовок : Кураж-Бамбей
Язык : Russian
Default : Да
Forced : Нет

Аудио #2
Идентификатор : 3
Формат : E-AC-3
Формат/Информация : Audio Coding 3
Параметр Endianness формата : Big
Идентификатор кодека : A_EAC3
Продолжительность : 20 м. 36 с.
Вид битрейта : Постоянный
Битрейт : 640 Кбит/сек
Каналы : 6 каналов
Расположение каналов : Front: L C R, Side: L R, LFE
Частота : 48,0 КГц
Частота кадров : 187,500 кадров/сек (256 spf)
Метод сжатия : С потерями
Размер потока : 94,3 Мбайт (16%)
Язык : English
Default : Нет
Forced : Нет

Текст #1
Идентификатор : 4
Формат : UTF-8
Идентификатор кодека : S_TEXT/UTF8
Идентификатор кодека/Информация : UTF-8 Plain Text
Заголовок : Субтитры
Язык : Russian
Default : Нет
Forced : Нет

Текст #2
Идентификатор : 5
Формат : UTF-8
Идентификатор кодека : S_TEXT/UTF8
Идентификатор кодека/Информация : UTF-8 Plain Text
Заголовок : Субтитры
Язык : English
Default : Нет
Forced : Нет

Когда раздача ведётся путём добавления новых серий, при каждом добавлении создётся новый торрент. Чтобы начать докачку новой серии, пользователям необходимо сделать следующее:
(1) остановить скачивание,
(2) удалить старый торрент у себя из клиента (старые серии удалять не надо),
(3) скачать новый торрент и запустить его у себя в клиенте вместо старого, при этом указать клиенту путь в старую папку, куда и должно происходить скачивание новых серий.
Ваш клиент при этом должен произвести хеширование (проверку) старой папки (если не производит сам - помогите ему сделать это), и будет докачивать только те серии, которых у вас ещё нет. Старые серии при этом не удаляются, а продолжают раздаваться!
Eсли вы уже удалили старые серии, то предотвратить повторную закачку старых серий можно, отжав галочку в соответсвующих местах при запуске нового торрента. По возможности, желательно не удалять старые серии как можно дольше, чтобы релизёр не столько продолжал раздавать старые серии, а смог сконцентрироваться на новых.
piratbit.pw



Скачать Теория большого взрыва через торрент http://s008.radikal.ru/i303/1709/40/91752ed9ec76.jpg Скачать фильм Теория большого взрыва через торрент бесплантно в хорошем качестве Описание: Два блестящих физика, Леонард и Шелдон, считают себя «великими умами». Но их гениальность ничуть не помогает им общаться с ... 9 10 9
Info! Золотая раздача, скачанное не засчитывается.
Торрент: Зарегистрирован [2018-05-16 14:14] · скачан: 202 раз
Статус: √ проверено
Размер: 16.15 GB
Как cкачать? Как скачать Теория большого взрыва через торрент | qTorrent

% Раздел Тема Автор DL S | L
Теория большого взрыва [ 5.87 GB ] Теория большого взрыва / The Big Bang Theory / Сезон: 11 / Серии: 1-24 из 24 [2017 Ситком HDTVRip] VO [Кураж-Бамбей] bober100 Скачать
1 | 0
Теория большого взрыва [ 21.25 GB ] Теория большого взрыва / The Big Bang Theory / Сезон: 11 / Серии: 1-24 из 24 [2017 Ситком WEB-DL 1080p] VO [Кураж-Бамбей] bober100 Скачать
1 | 0
Теория большого взрыва [ 16.24 GB ] Теория Большого Взрыва / The Big Bang Theory / Сезон: 5 Серии: 1-24 из 24 [2011 Ситком WEB-DL 720p] [Кураж-Бамбей rus+eng subs] wekotila Скачать
1 | 0
Теория большого взрыва [ 4.08 GB ] Теория Большого Взрыва / The Big Bang Theory / Сезон: 5 Серии 1-24 из 24 [2011 Ситком HDTVRip] Кураж-Бамбей wekotila Скачать
1 | 0


Последний раз редактировалось: bober100 (2018-05-16 14:14), всего редактировалось 1 раз

28-11-2019 20:33  

Отключить всю рекламу на сайте

10-05-2018 21:21 Теория большого взрыва Скачать торрент  

Обалденный комедийный сериал!!!!!piratbit.pw



19-05-2018 18:16 Теория большого взрыва Скачать торрент  

А 12 сезон будут снимать?piratbit.pw



02-06-2018 20:34 Теория большого взрыва Скачать торрент  

вот и подошел к концу сезон... надеюсь будет следующий)piratbit.pw



    Дорогой пользователь! Огромная просьба, поблагодарите релизера, оцените раздачу и оставьте свои комментарий, если Вы скачали Теория большого взрыва через торрент бесплатно! Внесите свою лепту в развитие PiratBit!
    Комментировать посты могут только пользователи прошедшие не сложную регистрацию
    Показать сообщения:    

    Теория большого взрыва через торрент
    Скачать бесплатно Теория большого взрыва
    Теория большого взрыва скачать торрент
    Теория большого взрыва смотреть онлайн
    Cкачать фильм Теория большого взрыва бесплатно
    Теория большого взрыва скачать торрент в хорошем качестве
    Теория большого взрыва смотреть онлайн бесплатно в хорошем качестве


    Вы не можете начинать темы
    Вы не можете отвечать на сообщения
    Вы не можете редактировать свои сообщения
    Вы не можете удалять свои сообщения
    Вы не можете голосовать в опросах
    Вы не можете прикреплять файлы к сообщениям
    Вы можете скачивать файлы