Marvel's Avengers Deluxe Edition (супер цена) 159р. Внимание количество ограничено!!!

2 сезон

iTunes

iTunes

1

iTunes

iTunes

iTunes

WEBRip

iTunes

30
pack

Новость дня

ВАЖНО

!!Акция!!

Alien_RageХит недели

RePack

Horizon Zero Dawn

ИГРА 18+

pack

RePack

jed

!!Акция!!

Alien_Rage

RePack

fifa19

RePack

Assassins Creed: Odyssey

RePack

NEED FOR SPEED™ PAYBACK

4 сезон

9 сезон

Бесстыжие 9 сезон

Все сериалы

все сериалы на PB.wtf

RePack

FAR CRY 5
  

За гранью реальности (Александр Богуславский) [2018, приключения, фэнтези, WEB-DL 720p] [iTunes] piratbit.pw

За гранью реальности через торрент piratbit.pw

Размер: 3.16 GB | Добавлен: 2 года 5 мес. назад | Торрент скачан:506 раз
Скачать  

31-03-2018 00:30 За гранью реальности Скачать торрент  

За гранью реальностиГод выпуска: 2018
Страна: Россия
Жанр: приключения, фэнтези
Продолжительность: 01:41:12
Перевод: Не требуется | iTunes
Субтитры: отсутствуют

Режиссер: Александр Богуславский

rating

В ролях:

Милош Бикович, Антонио Бандерас, Любовь Аксенова, Евгений Стычкин, Юрий Чурсин, Аристарх Венес, Петар Зекавица, Сергей Астахов, Никита Дювбанов, Михаил Михеев

Описание:

Майкл, талантливый аферист, собирает команду людей с паранормальными способностями, чтобы ограбить казино. Однако все идет не по плану, и герои оказываются в смертельной опасности. Чтобы спасти их, Майклу придется действовать за гранью реальности — в загадочном мире подсознания, откуда проистекают сверхспособности его друзей.

Качество: WEB-DL 720p
Формат: MKV

Видео: AVC, 4 041 Кбит/с, 960x536
Аудио: AC3, 6 ch, 384 Кбит/с
скриншот   скриншот   скриншот   скриншот  

Общее
Уникальный идентификатор : 223580721308376163700773344768772397351 (0xA83414A3387E5CBD8F73D9D494E5D927)
Полное имя : C:\3a.gp4Hju.pE4LH0Ct1.2O18.O.WEB-DL.72OP.mkv
Формат : Matroska
Версия формата : Version 2
Размер файла : 3,16 Гбайт
Продолжительность : 1 ч. 42 м.
Общий поток : 4427 Кбит/сек
Дата кодирования : UTC 2018-03-30 18:06:14
Программа кодирования : mkvmerge v8.3.0 ('Over the Horizon') 64bit
Библиотека кодирования : libebml v1.3.1 + libmatroska v1.4.2

Видео
Идентификатор : 1
Формат : AVC
Формат/Информация : Advanced Video Codec
Профиль формата : Main@L3.1
Параметр CABAC формата : Нет
Параметр RefFrames формата : 2 кадра
Идентификатор кодека : V_MPEG4/ISO/AVC
Продолжительность : 1 ч. 42 м.
Битрейт : 4041 Кбит/сек
Ширина : 960 пикселей
Высота : 536 пикселей
Соотношение сторон : 2,40:1
Режим частоты кадров : Постоянный
Частота кадров : 25,000 кадров/сек
Цветовое пространство : YUV
Субдискретизация насыщенности : 4:2:0
Битовая глубина : 8 бит
Тип развёртки : Прогрессивная
Бит/(Пиксели*Кадры) : 0.314
Размер потока : 2,89 Гбайт (91%)
Язык : English
Default : Да
Forced : Нет
Цветовой диапазон : Limited
Основные цвета : BT.709
Характеристики трансфера : BT.709
Коэффициенты матрицы : BT.709

Аудио
Идентификатор : 2
Формат : AC-3
Формат/Информация : Audio Coding 3
Расширение режима : CM (complete main)
Параметр Endianness формата : Big
Идентификатор кодека : A_AC3
Продолжительность : 1 ч. 42 м.
Вид битрейта : Постоянный
Битрейт : 384 Кбит/сек
Каналы : 6 каналов
Расположение каналов : Front: L C R, Side: L R, LFE
Частота : 48,0 КГц
Частота кадров : 31,250 кадров/сек (1536 spf)
Метод сжатия : С потерями
Размер потока : 281 Мбайт (9%)
Язык : Russian
Default : Да
Forced : Нет

Меню
00:00:00.000 : en:Глава 1
00:07:35.120 : en:Глава 2
00:15:02.920 : en:Глава 3
00:23:07.160 : en:Глава 4
00:32:05.440 : en:Глава 5
00:40:45.640 : en:Глава 6
00:48:56.480 : en:Глава 7
00:56:55.760 : en:Глава 8
01:05:57.800 : en:Глава 9
01:14:50.560 : en:Глава 10
01:23:06.760 : en:Глава 11
01:32:41.880 : en:Глава 12

piratbit.pw



Скачать За гранью реальности через торрент http://i101.fastpic.ru/big/2018/0330/fd/9d3622c0a7708460771ca95f6144ecfd.jpg Скачать фильм За гранью реальности через торрент бесплантно в хорошем качестве Описание: Майкл, талантливый аферист, собирает команду людей с паранормальными способностями, чтобы ограбить казино. Однако все идет не по ... 10 10 9
Торрент: Зарегистрирован [2018-03-31 00:30] · скачан: 506 раз
Статус: √ проверено
Размер: 3.16 GB
Как cкачать? Как скачать За гранью реальности через торрент | qTorrent

% Раздел Тема Автор DL S | L
Наши новые фильмы 2018-2019 [ 1.57 GB ] За гранью реальности [2018 WEB-DLRip-AVC] - ExKinoRay Enigma2010 Скачать
1 | 0
Наши фильмы (HD, WEB-DL 720p, 1080p) [ 3.54 GB ] За гранью реальности [2018 WEB-DL 1080p] oleg8 Скачать
2 | 0
Наши новые фильмы 2018-2019 [ 1.46 GB ] За гранью реальности [2018 WEB-DLRip] killermax2013 Скачать
2 | 0
Наши новые фильмы 2018-2019 [ 745 MB ] За гранью реальности [2018 WEB-DLRip] bober100 Скачать
1 | 0
Фильмы до 2000 г. [ 726 MB ] За гранью реальности / Изменённая участь / Эпицентр / Convergence / Altered Fate / Premonition [1999 DVDRip] [DVO] killermax2013 Скачать
1 | 0

28-11-2019 20:33  

Отключить всю рекламу на сайте

31-03-2018 14:54 За гранью реальности Скачать торрент  

конченый фильм меня хватило на 30 минут!piratbit.pw



31-03-2018 18:41 За гранью реальности Скачать торрент  

kamikaze61ru писал(а):

конченый фильм меня хватило на 30 минут!

спасибо)piratbit.pw



    Дорогой пользователь! Огромная просьба, поблагодарите релизера, оцените раздачу и оставьте свои комментарий, если Вы скачали За гранью реальности через торрент бесплатно! Внесите свою лепту в развитие PiratBit!
    Комментировать посты могут только пользователи прошедшие не сложную регистрацию
    Показать сообщения:    

    За гранью реальности через торрент
    Скачать бесплатно За гранью реальности
    За гранью реальности скачать торрент
    За гранью реальности смотреть онлайн
    Cкачать фильм За гранью реальности бесплатно
    За гранью реальности скачать торрент в хорошем качестве
    За гранью реальности смотреть онлайн бесплатно в хорошем качестве


    Вы не можете начинать темы
    Вы не можете отвечать на сообщения
    Вы не можете редактировать свои сообщения
    Вы не можете удалять свои сообщения
    Вы не можете голосовать в опросах
    Вы не можете прикреплять файлы к сообщениям
    Вы можете скачивать файлы