1 сезон

1 сезон

iTunes

1

КиноПоиск HD

Кинопоиск HD

iTunes

13

1 сезон

RePack

30

Ultimate

ВАЖНО

ИГРА 18+

pack

RePack

MK11
pack

Легкие деньги

RePack

jed

RePack

fifa19

RePack

RDR2

RePack

NEED FOR SPEED™ PAYBACK

4 сезон

9 сезон

Бесстыжие 9 сезон

Все сериалы

все сериалы на PB.wtf

RePack

FAR CRY 5
  
Magnet ссылка

Повелитель зверей / The Beastmaster (Дон Коскарелли) [1982, фэнтези, боевик, приключения, BDRip 720p by msltel] 4 x AVO piratbit.pw

Повелитель зверей через торрент piratbit.pw

Размер: 6.47 GB | Добавлен: 3 года назад | Торрент скачан:3 раза
Скачать  

28-03-2018 06:16 Повелитель зверей Скачать торрент  

Название: Повелитель зверей
Оригинальное название: The Beastmaster
Год выпуска: 1982
Страна: США, Германия (ФРГ)
Жанр: фэнтези, боевик, приключения
Продолжительность: 01:58:27
Перевод: авторский

Режиссер: Дон Коскарелли
В ролях: Марк Сингер, Таня Робертс, Рип Торн, Джон Эймос, Род Лумис, Джош Милрод, Бен Хаммер, Ральф Стрейт, Билли Джэйн, Джанет ДеМэй, Крис Келлогг, Джанет Джонс, Тони Эппер, Мик Тибодо, Пол Рейнольдс, Монти Л. Саймонс, Брюс Пол Барбо, Даймонд Фарнсворт, Линда Смит, Ларри Рэндлс, Джереми Вилан, Билли Хэнк Хукер, Джордж Скотт, Томми Дж. Хафф, Ричард Хэмпфри, Хью Армстронг, Майк Киртон, Эдди Донно, Гари МакЛарти, Фесс Рейнольдс, Чарльз Хикс

О фильме: Воин по имени Дар после того, как орда жестоких джанов уничтожила его родной посёлок, отправляется искать мести. Отмеченный знаком бога-зверя, он понимает язык птиц и животных, и его спутники — огромный ночной тигр, парочка хитрецов-хорьков и орёл — помогают ему не только сражаться с людьми, но и с неведомыми существами, обитающими в тёмных лесах и сырых подземельях...



Качество: BDRip 720p
Формат: MKV
Видео: MPEG-4 AVC, 6342 Kбит/с, 1272x720, 23.976 кадр/c
Аудио 1: русский, AC3, 192 kbps, 2 ch, 48 kHz [авторский, Вартан Дохалов]
Аудио 2: русский, AC3, 448 kbps, 6 ch, 48 kHz [авторский, Константин Дьяконов]
Аудио 3: русский, AC3, 192 kbps, 2 ch, 48 kHz [авторский, Александр Марченко]
Аудио 4: русский, AC3, 192 kbps, 2 ch, 48 kHz [авторский, Юрий Сербин]
Аудио 5: английский, AC3, 448 kbps, 6 ch, 48 kHz [оригинал]
Главы/чаптеры
Общее
Уникальный идентификатор : 190577223310664093056011085943865062119 (0x8F5FD68E536244F1983BCB5C3813B2E7)
Полное имя : D:\Video\Повелитель зверей.1982.BDRip.720p by msltel.mkv
Формат : Matroska
Версия формата : Version 4 / Version 2
Размер файла : 6,47 Гбайт
Продолжительность : 1 ч. 58 м.
Общий поток : 7816 Кбит/сек
Название фильма : Rip by msltel
Дата кодирования : UTC 2018-03-27 12:17:31
Программа кодирования : mkvmerge v8.2.0 ('World of Adventure') 64bit
Библиотека кодирования : libebml v1.3.1 + libmatroska v1.4.2

Видео
Идентификатор : 1
Формат : AVC
Формат/Информация : Advanced Video Codec
Профиль формата : High@L4.1
Настройки формата : CABAC / 9 Ref Frames
Параметр CABAC формата : Да
Параметр RefFrames формата : 9 кадров
Идентификатор кодека : V_MPEG4/ISO/AVC
Продолжительность : 1 ч. 58 м.
Битрейт : 6342 Кбит/сек
Ширина : 1272 пикселя
Высота : 720 пикселей
Соотношение сторон : 16:9
Режим частоты кадров : Постоянный
Частота кадров : 23,976 (24000/1001) кадра/сек
Цветовое пространство : YUV
Субдискретизация насыщенности : 4:2:0
Битовая глубина : 8 бит
Тип развёртки : Прогрессивная
Бит/(Пиксели*Кадры) : 0.289
Размер потока : 5,25 Гбайт (81%)
Библиотека кодирования : x264 core 146 r2538 121396c
Настройки программы : cabac=1 / ref=9 / deblock=1:-3:-2 / analyse=0x3:0x113 / me=umh / subme=11 / psy=1 / psy_rd=1.00:0.15 / mixed_ref=1 / me_range=32 / chroma_me=1 / trellis=2 / 8x8dct=1 / cqm=0 / deadzone=21,11 / fast_pskip=0 / chroma_qp_offset=-3 / threads=6 / lookahead_threads=1 / sliced_threads=0 / nr=0 / decimate=1 / interlaced=0 / bluray_compat=0 / constrained_intra=0 / bframes=9 / b_pyramid=2 / b_adapt=2 / b_bias=0 / direct=1 / weightb=1 / open_gop=0 / weightp=2 / keyint=230 / keyint_min=23 / scenecut=40 / intra_refresh=0 / rc_lookahead=40 / rc=crf / mbtree=0 / crf=20.1 / qcomp=0.60 / qpmin=0 / qpmax=69 / qpstep=4 / vbv_maxrate=62500 / vbv_bufsize=78125 / crf_max=0.0 / nal_hrd=none / filler=0 / ip_ratio=1.40 / pb_ratio=1.30 / aq=1:1.00
Язык : English
Default : Да
Forced : Нет

Аудио #1
Идентификатор : 2
Формат : AC-3
Формат/Информация : Audio Coding 3
Идентификатор кодека : A_AC3
Продолжительность : 1 ч. 58 м.
Вид битрейта : Постоянный
Битрейт : 192 Кбит/сек
Каналы : 2 канала
Расположение каналов : Front: L R
Частота : 48,0 КГц
Частота кадров : 31,250 кадров/сек (1536 SPF)
Битовая глубина : 16 бит
Метод сжатия : С потерями
Размер потока : 163 Мбайт (2%)
Заголовок : Вартан Дохалов
Язык : Russian
ServiceKind/String : Complete Main
Default : Да
Forced : Нет

Аудио #2
Идентификатор : 3
Формат : AC-3
Формат/Информация : Audio Coding 3
Идентификатор кодека : A_AC3
Продолжительность : 1 ч. 58 м.
Вид битрейта : Постоянный
Битрейт : 448 Кбит/сек
Каналы : 6 каналов
Расположение каналов : Front: L C R, Side: L R, LFE
Частота : 48,0 КГц
Частота кадров : 31,250 кадров/сек (1536 SPF)
Битовая глубина : 16 бит
Метод сжатия : С потерями
Размер потока : 380 Мбайт (6%)
Заголовок : Константин Дьяконов
Язык : Russian
ServiceKind/String : Complete Main
Default : Нет
Forced : Нет

Аудио #3
Идентификатор : 4
Формат : AC-3
Формат/Информация : Audio Coding 3
Идентификатор кодека : A_AC3
Продолжительность : 1 ч. 58 м.
Вид битрейта : Постоянный
Битрейт : 192 Кбит/сек
Каналы : 2 канала
Расположение каналов : Front: L R
Частота : 48,0 КГц
Частота кадров : 31,250 кадров/сек (1536 SPF)
Битовая глубина : 16 бит
Метод сжатия : С потерями
Размер потока : 163 Мбайт (2%)
Заголовок : Александр Марченко
Язык : Russian
ServiceKind/String : Complete Main
Default : Нет
Forced : Нет

Аудио #4
Идентификатор : 5
Формат : AC-3
Формат/Информация : Audio Coding 3
Идентификатор кодека : A_AC3
Продолжительность : 1 ч. 58 м.
Вид битрейта : Постоянный
Битрейт : 192 Кбит/сек
Каналы : 2 канала
Расположение каналов : Front: L R
Частота : 48,0 КГц
Частота кадров : 31,250 кадров/сек (1536 SPF)
Битовая глубина : 16 бит
Метод сжатия : С потерями
Размер потока : 163 Мбайт (2%)
Заголовок : Юрий Сербин
Язык : Russian
ServiceKind/String : Complete Main
Default : Нет
Forced : Нет

Аудио #5
Идентификатор : 6
Формат : AC-3
Формат/Информация : Audio Coding 3
Идентификатор кодека : A_AC3
Продолжительность : 1 ч. 58 м.
Вид битрейта : Постоянный
Битрейт : 448 Кбит/сек
Каналы : 6 каналов
Расположение каналов : Front: L C R, Side: L R, LFE
Частота : 48,0 КГц
Частота кадров : 31,250 кадров/сек (1536 SPF)
Битовая глубина : 16 бит
Метод сжатия : С потерями
Размер потока : 380 Мбайт (6%)
Заголовок : original
Язык : English
ServiceKind/String : Complete Main
Default : Нет
Forced : Нет

Меню
00:00:00.000 : en:Chapter 01
00:01:38.056 : en:Chapter 02
00:16:22.147 : en:Chapter 03
00:29:23.762 : en:Chapter 04
00:39:43.839 : en:Chapter 05
00:49:28.632 : en:Chapter 06
00:55:43.757 : en:Chapter 07
01:01:40.697 : en:Chapter 08
01:12:19.335 : en:Chapter 09
01:24:21.014 : en:Chapter 10
01:33:37.695 : en:Chapter 11
01:41:53.690 : en:Chapter 12
01:55:32.425 : en:Chapter 13
piratbit.pw



Скачать Повелитель зверей через торрент https://d.radikal.ru/d23/1803/fb/399206bb2ebf.jpg Скачать фильм Повелитель зверей через торрент бесплантно в хорошем качестве О фильме: Воин по имени Дар после того, как орда жестоких джанов уничтожила его родной посёлок, отправляется искать мести. Отмеченный ... 5 10 1
Info! Золотая раздача, скачанное не засчитывается.
Торрент: Зарегистрирован [2018-03-28 06:16] · скачан: 3 раз
Статус: √ проверено
Размер: 6.47 GB
Как cкачать? Как скачать Повелитель зверей через торрент | UTorrent

% Раздел Тема Автор DL S | L
Фильмы с авторской озвучкой [ 15.88 GB ] Повелитель зверей / The Beastmaster [1982 BDRip 1080p by msltel] 4 x AVO msltel Скачать
1 | 0

28-11-2019 20:33  

Отключить всю рекламу на сайте


    Дорогой пользователь! Огромная просьба, поблагодарите релизера, оцените раздачу и оставьте свои комментарий, если Вы скачали Повелитель зверей через торрент бесплатно! Внесите свою лепту в развитие PiratBit!
    Комментировать посты могут только пользователи прошедшие не сложную регистрацию
    Показать сообщения:    

    Повелитель зверей через торрент
    Скачать бесплатно Повелитель зверей
    Повелитель зверей скачать торрент
    Повелитель зверей смотреть онлайн
    Cкачать фильм Повелитель зверей бесплатно
    Повелитель зверей скачать торрент в хорошем качестве
    Повелитель зверей смотреть онлайн бесплатно в хорошем качестве


    Вы не можете начинать темы
    Вы не можете отвечать на сообщения
    Вы не можете редактировать свои сообщения
    Вы не можете удалять свои сообщения
    Вы не можете голосовать в опросах
    Вы не можете прикреплять файлы к сообщениям
    Вы можете скачивать файлы