Marvel's Avengers Deluxe Edition (супер цена) 159р. Внимание количество ограничено!!!

2 сезон

iTunes

iTunes

1

iTunes

iTunes

iTunes

WEBRip

iTunes

30
pack

Новость дня

ВАЖНО

!!Акция!!

Alien_RageХит недели

RePack

Horizon Zero Dawn

ИГРА 18+

pack

RePack

jed

!!Акция!!

Alien_Rage

RePack

fifa19

RePack

Assassins Creed: Odyssey

RePack

NEED FOR SPEED™ PAYBACK

4 сезон

9 сезон

Бесстыжие 9 сезон

Все сериалы

все сериалы на PB.wtf

RePack

FAR CRY 5
  

Язычники (Валерия Суркова) [2017, драма, WEB-DL 1080p] piratbit.pw

Язычники через торрент piratbit.pw

Размер: 3.12 GB | Добавлен: 2 года 6 мес. назад | Торрент скачан:74 раза
Скачать  

19-03-2018 06:50 Язычники Скачать торрент  

ЯзычникиГод выпуска: 2017
Страна: Россия
Жанр: драма
Продолжительность: 01:32:00
Перевод: Не требуется
Субтитры: отсутствуют

Режиссер: Валерия Суркова

rating

В ролях:

Елена Нестерова, Валентин Самохин, Виталия Еньшина, Татьяна Владимирова, Дмитрий Уросов, Артем Григорьев, Анна Котова-Дерябина

Описание:

Живёт одна несчастливая семья. Отец - безработный музыкант, мать пашет на тяжёлой работе, чтобы оплатить образование дочери, в доме бесконечный ремонт, с которым никак не справится сосед-алкоголик по прозвищу Боцман. Нежданно-негаданно приезжает бабушка после десяти лет скитаний по святым местам. Никто не рад внезапной гостье, раздражающей христианскими нравоучениями, но с её появлением чудесным образом начинает налаживаться жизнь сына, невестки и даже непутевого Боцмана. Только для девятнадцатилетней внучки Кристины этот приезд спровоцирует настоящую трагедию.

Без рекламы!

Качество: WEB-DL 1080p
Формат: MKV

Видео: MPEG-4 AVC, ~ 4800 Кбит/с, 1920х1080
Аудио: Русский (AC3, 2 ch, 192 Кбит/с)
скриншот   скриншот   скриншот  

Общее
Уникальный идентификатор : 124151007294609996339095690316884015119 (0x5D669D3FF9F6E76A96D702DF133CF80F)
Полное имя : D:\Язычники.2017.WEB-DL.1080.Files-x.mkv
Формат : Matroska
Версия формата : Version 4 / Version 2
Размер файла : 3,12 Гбайт
Продолжительность : 1 ч. 32 м.
Режим общего битрейта : Постоянный
Общий поток : 4834 Кбит/сек
Программа кодирования : Lavf56.25.101
Библиотека кодирования : Lavf56.25.101 / Lavf56.25.101

Видео
Идентификатор : 1
Формат : AVC
Формат/Информация : Advanced Video Codec
Профиль формата : High@L4.1
Параметр CABAC формата : Да
Параметр RefFrames формата : 4 кадра
Идентификатор кодека : V_MPEG4/ISO/AVC
Продолжительность : 1 ч. 32 м.
Вид битрейта : Постоянный
Битрейт : 4546 Кбит/сек
Номинальный битрейт : 4800 Кбит/сек / 4800 Кбит/сек
Ширина : 1920 пикселей
Высота : 1080 пикселей
Соотношение сторон : 16:9
Режим частоты кадров : Постоянный
Частота кадров : 25,000 кадров/сек
Цветовое пространство : YUV
Субдискретизация насыщенности : 4:2:0
Битовая глубина : 8 бит
Тип развёртки : Прогрессивная
Бит/(Пиксели*Кадры) : 0.088
Размер потока : 2,94 Гбайт (94%)
Библиотека кодирования : x264 core 148
Настройки программы : cabac=1 / ref=2 / deblock=1:0:0 / analyse=0x3:0x113 / me=hex / subme=6 / psy=1 / psy_rd=1.00:0.00 / mixed_ref=1 / me_range=16 / chroma_me=1 / trellis=1 / 8x8dct=1 / cqm=0 / deadzone=21,11 / fast_pskip=1 / chroma_qp_offset=-2 / threads=1 / lookahead_threads=1 / sliced_threads=0 / nr=0 / decimate=1 / interlaced=0 / bluray_compat=0 / constrained_intra=0 / bframes=3 / b_pyramid=2 / b_adapt=1 / b_bias=0 / direct=1 / weightb=1 / open_gop=0 / weightp=1 / keyint=250 / keyint_min=25 / scenecut=0 / intra_refresh=0 / rc_lookahead=30 / rc=cbr / mbtree=1 / bitrate=4800 / ratetol=1.0 / qcomp=0.60 / qpmin=0 / qpmax=69 / qpstep=4 / vbv_maxrate=4800 / vbv_bufsize=2400 / nal_hrd=cbr / filler=1 / ip_ratio=1.40 / aq=1:1.00
Default : Да
Forced : Нет

Аудио
Идентификатор : 2
Формат : AC-3
Формат/Информация : Audio Coding 3
Расширение режима : CM (complete main)
Параметр Endianness формата : Big
Идентификатор кодека : A_AC3
Продолжительность : 1 ч. 32 м.
Вид битрейта : Постоянный
Битрейт : 192 Кбит/сек
Каналы : 2 канала
Расположение каналов : Front: L R
Частота : 48,0 КГц
Частота кадров : 31,250 кадров/сек (1536 spf)
Метод сжатия : С потерями
Задержка видео : -80 мс.
Размер потока : 127 Мбайт (4%)
Язык : English
Default : Да
Forced : Нет

piratbit.pw



Скачать Язычники через торрент http://img12.lostpic.net/2018/03/15/e20e242bb32d19319f24a2030993cb3d.jpg Скачать фильм Язычники через торрент бесплантно в хорошем качестве Описание: Живёт одна несчастливая семья. Отец - безработный музыкант, мать пашет на тяжёлой работе, чтобы оплатить образование дочери, в ... 8.7 10 7
Info! Золотая раздача, скачанное не засчитывается.
Торрент: Зарегистрирован [2018-03-19 06:50] · скачан: 74 раз
Статус: T временная
Размер: 3.12 GB
Как cкачать? Как скачать Язычники через торрент | qTorrent

% Раздел Тема Автор DL S | L
T Наши новые фильмы 2017 [ 1.37 GB ] Язычники [2017 WEB-DLRip-AVC] bober100 Скачать
1 | 0
T Наши фильмы (HD, WEB-DL 720p, 1080p) [ 2.11 GB ] Язычники [2017 WEB-DL 720p] bober100 Скачать
1 | 0
T Наши новые фильмы 2017 [ 1.37 GB ] Язычники [2017 WEB-DLRip] bober100 Скачать
1 | 0
Фильмы [HD 720p, 1080p] (Хороший звук DUB, MVO) [ 4.37 GB ] Язычники и воры / Heathens and Thieves [2012 BDRip 720p Перевод Отсутствует] smaster Скачать
1 | 0

28-11-2019 20:33  

Отключить всю рекламу на сайте

    Дорогой пользователь! Огромная просьба, поблагодарите релизера, оцените раздачу и оставьте свои комментарий, если Вы скачали Язычники через торрент бесплатно! Внесите свою лепту в развитие PiratBit!
    Комментировать посты могут только пользователи прошедшие не сложную регистрацию
    Показать сообщения:    

    Язычники через торрент
    Скачать бесплатно Язычники
    Язычники скачать торрент
    Язычники смотреть онлайн
    Cкачать фильм Язычники бесплатно
    Язычники скачать торрент в хорошем качестве
    Язычники смотреть онлайн бесплатно в хорошем качестве


    Вы не можете начинать темы
    Вы не можете отвечать на сообщения
    Вы не можете редактировать свои сообщения
    Вы не можете удалять свои сообщения
    Вы не можете голосовать в опросах
    Вы не можете прикреплять файлы к сообщениям
    Вы можете скачивать файлы