1 сезон

1 сезон

iTunes

1

КиноПоиск HD

Кинопоиск HD

iTunes

13

1 сезон

RePack

30

Новинка

ВАЖНО

ИГРА 18+

pack

RePack

MK11
pack

Легкие деньги

RePack

jed

RePack

fifa19

RePack

RDR2

RePack

NEED FOR SPEED™ PAYBACK

4 сезон

9 сезон

Бесстыжие 9 сезон

Все сериалы

все сериалы на PB.wtf

RePack

FAR CRY 5
  
Magnet ссылка

Кикбоксер: Возмездие / Kickboxer: Retaliation (Димитри Логотетис) [2017, боевик, драма, BDRip 1080p] AVO [А.Гаврилов] piratbit.pw

Кикбоксер: Возмездие через торрент piratbit.pw

Размер: 8.24 GB | Добавлен: 3 года 1 мес. назад | Торрент скачан:83 раза
Скачать  

14-03-2018 10:47 Кикбоксер: Возмездие Скачать торрент  

Кикбоксер: Возмездие / Kickboxer: RetaliationГод выпуска: 2017
Страна: США
Жанр: боевик, драма
Продолжительность: 01:50:23
Перевод: Авторский (одноголосый, закадровый) | А.Гаврилов
Субтитры: Английские

Режиссер: Димитри Логотетис

rating

В ролях:

Ален Мусси, Кристофер Ламберт, Жан-Клод Ван Дамм, Майк Тайсон, Сара Малакул Лэйн, Хафтор Бьёрнсон, Сэм Медина, Стивен Шэдлинг, Майлс Строммен, Джессика Янн

Описание:

Продолжение боевика о мстителе Курте Слоуне, который жаждал поквитаться за своего поверженного брата. Спустя год Курт против воли возвращается в Таиланд, где перед ним встает выбор – сгнить в жестокой тюрьме или выйти на ринг против боксера-гиганта, устроив смертельное, но грандиозное и прибыльное зрелище.

Качество: BDRip 1080p
Формат: MKV

Видео: MPEG-4 AVC, 8788 kb/s, 1920x808
Аудио#1: Russian: AC3, 384 kb/s (6 ch)
Аудио#2: English: DTS, 1509 kb/s (6 ch)
скриншот   скриншот   скриншот  

General
Unique ID : 206932783013669705373986486238419894890 (0x9BADCDE872F6112D95F3A0861928426A)
Complete name : C:UsersВDownloadsVideoKickboxer- Retaliation.2018.P.BDRip.1080p.mkv
Format : Matroska
Format version : Version 2
File size : 8.24 GiB
Duration : 1h 50mn
Overall bit rate : 10.7 Mbps
Encoded date : UTC 2018-03-14 00:13:04
Writing application : mkvmerge v8.3.0 ('Over the Horizon') 64bit
Writing library : libebml v1.3.1 + libmatroska v1.4.2
DURATION : 01:50:24.448000000
NUMBER_OF_FRAMES : 207014
NUMBER_OF_BYTES : 317973504
_STATISTICS_WRITING_APP : mkvmerge v8.3.0 ('Over the Horizon') 64bit
_STATISTICS_WRITING_DATE_UTC : 2018-03-14 00:13:04
_STATISTICS_TAGS : BPS DURATION NUMBER_OF_FRAMES NUMBER_OF_BYTES

Video
ID : 1
Format : AVC
Format/Info : Advanced Video Codec
Format profile : High@L4.1
Format settings, CABAC : Yes
Format settings, ReFrames : 5 frames
Codec ID : V_MPEG4/ISO/AVC
Duration : 1h 50mn
Bit rate : 8 788 Kbps
Width : 1 920 pixels
Height : 808 pixels
Display aspect ratio : 2.40:1
Frame rate mode : Constant
Frame rate : 23.976 fps
Color space : YUV
Chroma subsampling : 4:2:0
Bit depth : 8 bits
Scan type : Progressive
Bits/(Pixel*Frame) : 0.236
Stream size : 6.61 GiB (80%)
Writing library : x264 core 155 r2901 7d0ff22
Encoding settings : cabac=1 / ref=5 / deblock=1:-3:-3 / analyse=0x3:0x113 / me=umh / subme=8 / psy=1 / psy_rd=1.00:0.00 / mixed_ref=1 / me_range=32 / chroma_me=1 / trellis=1 / 8x8dct=1 / cqm=0 / deadzone=21,11 / fast_pskip=1 / chroma_qp_offset=-2 / threads=24 / lookahead_threads=4 / sliced_threads=0 / nr=0 / decimate=1 / interlaced=0 / bluray_compat=0 / constrained_intra=0 / bframes=3 / b_pyramid=2 / b_adapt=2 / b_bias=0 / direct=3 / weightb=1 / open_gop=0 / weightp=2 / keyint=240 / keyint_min=24 / scenecut=40 / intra_refresh=0 / rc_lookahead=50 / rc=2pass / mbtree=1 / bitrate=8788 / ratetol=1.0 / qcomp=0.60 / qpmin=0 / qpmax=69 / qpstep=4 / cplxblur=20.0 / qblur=0.5 / ip_ratio=1.40 / aq=3:0.80
Default : Yes
Forced : No
DURATION : 01:50:25.703000000
NUMBER_OF_FRAMES : 158858
NUMBER_OF_BYTES : 7275881923
_STATISTICS_WRITING_APP : mkvmerge v8.3.0 ('Over the Horizon') 64bit
_STATISTICS_WRITING_DATE_UTC : 2018-03-14 00:13:04
_STATISTICS_TAGS : BPS DURATION NUMBER_OF_FRAMES NUMBER_OF_BYTES

Audio #1
ID : 2
Format : AC-3
Format/Info : Audio Coding 3
Mode extension : CM (complete main)
Format settings, Endianness : Big
Codec ID : A_AC3
Duration : 1h 50mn
Bit rate mode : Constant
Bit rate : 384 Kbps
Channel(s) : 6 channels
Channel positions : Front: L C R, Side: L R, LFE
Sampling rate : 48.0 KHz
Bit depth : 16 bits
Compression mode : Lossy
Stream size : 303 MiB (4%)
Language : Russian
Default : Yes
Forced : No
DURATION : 01:50:25.707000000
NUMBER_OF_FRAMES : 621160
NUMBER_OF_BYTES : 1249773920
_STATISTICS_WRITING_APP : mkvmerge v8.3.0 ('Over the Horizon') 64bit
_STATISTICS_WRITING_DATE_UTC : 2018-03-14 00:13:04
_STATISTICS_TAGS : BPS DURATION NUMBER_OF_FRAMES NUMBER_OF_BYTES

Audio #2
ID : 3
Format : DTS
Format/Info : Digital Theater Systems
Mode : 16
Format settings, Endianness : Big
Codec ID : A_DTS
Duration : 1h 50mn
Bit rate mode : Constant
Bit rate : 1 509 Kbps
Channel(s) : 6 channels
Channel positions : Front: L C R, Side: L R, LFE
Sampling rate : 48.0 KHz
Bit depth : 24 bits
Compression mode : Lossy
Stream size : 1.16 GiB (14%)
Language : English
Default : No
Forced : No
DURATION : 01:41:37.216000000
NUMBER_OF_FRAMES : 719
NUMBER_OF_BYTES : 18390
_STATISTICS_WRITING_APP : mkvmerge v8.3.0 ('Over the Horizon') 64bit
_STATISTICS_WRITING_DATE_UTC : 2018-03-14 00:13:04
_STATISTICS_TAGS : BPS DURATION NUMBER_OF_FRAMES NUMBER_OF_BYTES

Text #1
ID : 4
Format : UTF-8
Codec ID : S_TEXT/UTF8
Codec ID/Info : UTF-8 Plain Text
Language : English
Default : No
Forced : No
DURATION : 01:41:37.216000000
NUMBER_OF_FRAMES : 727
NUMBER_OF_BYTES : 18612
_STATISTICS_WRITING_APP : mkvmerge v8.3.0 ('Over the Horizon') 64bit
_STATISTICS_WRITING_DATE_UTC : 2018-03-14 00:13:04
_STATISTICS_TAGS : BPS DURATION NUMBER_OF_FRAMES NUMBER_OF_BYTES

Text #2
ID : 5
Format : UTF-8
Codec ID : S_TEXT/UTF8
Codec ID/Info : UTF-8 Plain Text
Title : SDH
Language : English
Default : No
Forced : No

Menu
00:00:00.000 : en:00:00:00.000
00:10:06.899 : en:00:10:06.899
00:16:29.865 : en:00:16:29.865
00:24:00.315 : en:00:24:00.315
00:33:30.385 : en:00:33:30.385
00:40:08.991 : en:00:40:08.991
00:47:53.247 : en:00:47:53.247
00:58:59.537 : en:00:58:59.537
01:05:05.987 : en:01:05:05.987
01:15:44.750 : en:01:15:44.750
01:26:30.603 : en:01:26:30.603
01:45:54.891 : en:01:45:54.891

piratbit.pw



Скачать Кикбоксер: Возмездие через торрент http://i5.imageban.ru/out/2017/12/06/e9fd3b2d0e7ba819f7912a0390031319.png Скачать фильм Кикбоксер: Возмездие через торрент бесплантно в хорошем качестве Описание: Продолжение боевика о мстителе Курте Слоуне, который жаждал поквитаться за своего поверженного брата. Спустя год Курт против воли ... 10 10 3
Торрент: Зарегистрирован [2018-03-14 10:47] · скачан: 83 раз
Статус: T временная
Размер: 8.24 GB
Как cкачать? Как скачать Кикбоксер: Возмездие через торрент | UTorrent

% Раздел Тема Автор DL S | L
Фильмы 2018 [DVDrip, WEB-DLRip, HDrip] (DUB, MVO) [ 1.46 GB ] Кикбоксер: Возмездие / Kickboxer: Retaliation [2017 BDRip] MVO [Прайд Продакшн] + AVO [А.Гаврилов] Twi7ter Скачать
1 | 0
Фильмы (Blu-ray, BD-Remux, HDDVD) [ 25.34 GB ] Кикбоксер: Возмездие / Kickboxer: Retaliation [2017 BD Remux 1080p] AVO [А.Гаврилов] bober100 Скачать
1 | 0
Фильмы с авторской озвучкой [ 2.17 GB ] Кикбоксер: Возмездие / Kickboxer: Retaliation [2017 BDRip-AVC] [AVO] - ExKinoRay Enigma2010 Скачать
1 | 0
Фильмы с авторской озвучкой [ 1.46 GB ] Кикбоксер: Возмездие / Kickboxer: Retaliation [2017 WEB-DLRip] [AVO] killermax2013 Скачать
2 | 0
Фильмы с авторской озвучкой [ 4.1 GB ] Кикбоксер: Возмездие / Kickboxer: Retaliation [2017 WEB-DL 1080p] AVO [А.Гаврилов] bober100 Скачать
1 | 0

28-11-2019 20:33  

Отключить всю рекламу на сайте

14-03-2018 10:50 Кикбоксер: Возмездие Скачать торрент  

Перевод: Авторский (одноголосый, закадровый) | А.Гаврилов
Благодарюpiratbit.pw



14-03-2018 10:59 Кикбоксер: Возмездие Скачать торрент  

Херасе, подборчик актеров!piratbit.pw



14-03-2018 11:12 Кикбоксер: Возмездие Скачать торрент  

Прям съезд пенсионеров)piratbit.pw



    Дорогой пользователь! Огромная просьба, поблагодарите релизера, оцените раздачу и оставьте свои комментарий, если Вы скачали Кикбоксер: Возмездие через торрент бесплатно! Внесите свою лепту в развитие PiratBit!
    Комментировать посты могут только пользователи прошедшие не сложную регистрацию
    Показать сообщения:    

    Кикбоксер: Возмездие через торрент
    Скачать бесплатно Кикбоксер: Возмездие
    Кикбоксер: Возмездие скачать торрент
    Кикбоксер: Возмездие смотреть онлайн
    Cкачать фильм Кикбоксер: Возмездие бесплатно
    Кикбоксер: Возмездие скачать торрент в хорошем качестве
    Кикбоксер: Возмездие смотреть онлайн бесплатно в хорошем качестве


    Вы не можете начинать темы
    Вы не можете отвечать на сообщения
    Вы не можете редактировать свои сообщения
    Вы не можете удалять свои сообщения
    Вы не можете голосовать в опросах
    Вы не можете прикреплять файлы к сообщениям
    Вы можете скачивать файлы