1 сезон

1 сезон

iTunes

1

КиноПоиск HD

Кинопоиск HD

iTunes

13

1 сезон

RePack

30

Новинка

ВАЖНО

ИГРА 18+

pack

RePack

MK11
pack

Легкие деньги

RePack

jed

RePack

fifa19

RePack

RDR2

RePack

NEED FOR SPEED™ PAYBACK

4 сезон

9 сезон

Бесстыжие 9 сезон

Все сериалы

все сериалы на PB.wtf

RePack

FAR CRY 5
  
Magnet ссылка

Один против всех / Seul contre tous (Гаспар Ноэ) [1998 г, триллер, драма, криминал, HDRip] 2xAVO (Алексеев, Кузнецов) piratbit.pw

Один против всех через торрент piratbit.pw

Размер: 1.45 GB | Добавлен: 3 года 1 мес. назад | Торрент скачан:21 раз
Скачать  

10-03-2018 09:49 Один против всех Скачать торрент  

Один против всех / Seul contre tous
Год выпуска: 1998
Страна: Франция
Жанр: триллер, драма, криминал
Продолжительность: 01:28:37
Перевод: Авторский (Алексеев, Кузнецов)

Режиссер: Гаспар Ноэ

rating

В ролях: Филипп Наон, Бландин Ленуар, Фрэнки Пэйн, Мартина Одрен, Жан-Франсуа Роже, Гийом Никлу, Оливье Доран, Айса Джабри, Серж Фори

Описание: Главный герой мясник. Его так и зовут Мясник. От него ушла жена и он остался со своей дочерью, в которую влюблен до беспамятства. Он начал трогать её ещё с четырехлетнего возраста. Девочка была необычной и в 4 года у неё пошли месячные, когда та находилась под присмотром друга мясника. Мясник, подумав что его дочь изнасиловали, разрезал своему другу лицо бритвой за что сел в тюрьму…

Качество: HDRip
Формат: AVI
Видео: XviD, 1944 Кбит/с, 720x272, 25 Кадр/с
Аудио #1: AC3, 2 ch, 192 Кбит/с | Авторский (Алексеев)
Аудио #2: AC3, 2 ch, 192 Кбит/с | Авторский (Кузнецов)
Релиз от: Koenig
скриншот   скриншот   скриншот   скриншот   скриншот   скриншот  

Общее
Полное имя : Seul.contre.tous.1998.HDRip.avi
Формат : AVI
Формат/Информация : Audio Video Interleave
Размер файла : 1,45 Гбайт
Продолжительность : 1 ч. 28 м.
Общий поток : 2342 Кбит/сек
Программа кодирования : VirtualDubMod 1.5.10.2 (build 2540/release)
Библиотека кодирования : VirtualDubMod build 2540/release

Видео
Идентификатор : 0
Формат : MPEG-4 Visual
Профиль формата : Advanced Simple@L5
Параметр BVOP формата : 1
Параметр QPel формата : Нет
Параметр GMC формата : Без точки перехода
Параметр матрицы формата : Выборочная
Идентификатор кодека : XVID
Идентификатор кодека/Подсказка : XviD
Продолжительность : 1 ч. 28 м.
Битрейт : 1944 Кбит/сек
Ширина : 720 пикселей
Высота : 272 пикселя
Соотношение сторон : 2,647
Частота кадров : 25,000 кадров/сек
Цветовое пространство : YUV
Субдискретизация насыщенности : 4:2:0
Битовая глубина : 8 бит
Тип развёртки : Прогрессивная
Метод сжатия : С потерями
Бит/(Пиксели*Кадры) : 0.397
Размер потока : 1,20 Гбайт (83%)
Библиотека кодирования : XviD 65

Аудио #1
Идентификатор : 1
Формат : AC-3
Формат/Информация : Audio Coding 3
Параметр Endianness формата : Big
Идентификатор кодека : 2000
Продолжительность : 1 ч. 28 м.
Вид битрейта : Постоянный
Битрейт : 192 Кбит/сек
Каналы : 2 канала
Расположение каналов : Front: L R
Частота : 48,0 КГц
Частота кадров : 31,250 кадров/сек (1536 spf)
Битовая глубина : 16 бит
Метод сжатия : С потерями
Размер потока : 122 Мбайт (8%)
Выравнивание : Разделение по промежуткам
Продолжительность промежутка : 40 мс. (1,00 видеокадр)
Время предзагрузки промежутка : 500 мс.
ServiceKind/String : Complete Main

Аудио #2
Идентификатор : 2
Формат : AC-3
Формат/Информация : Audio Coding 3
Параметр Endianness формата : Big
Идентификатор кодека : 2000
Продолжительность : 1 ч. 28 м.
Вид битрейта : Постоянный
Битрейт : 192 Кбит/сек
Каналы : 2 канала
Расположение каналов : Front: L R
Частота : 48,0 КГц
Частота кадров : 31,250 кадров/сек (1536 spf)
Битовая глубина : 16 бит
Метод сжатия : С потерями
Размер потока : 122 Мбайт (8%)
Выравнивание : Разделение по промежуткам
Продолжительность промежутка : 40 мс. (1,00 видеокадр)
Время предзагрузки промежутка : 500 мс.
ServiceKind/String : Complete Main

piratbit.pw



Скачать Один против всех через торрент http://img12.lostpic.net/2018/03/10/51e67bc26eed65880e33c745864fcefa.jpg Скачать фильм Один против всех через торрент бесплантно в хорошем качестве Описание: Главный герой мясник. Его так и зовут Мясник. От него ушла жена и он остался со своей дочерью, в которую влюблен до беспамятства. ... 5.5 10 2
Торрент: Зарегистрирован [2018-03-10 09:49] · скачан: 21 раз
Статус: √ проверено
Размер: 1.45 GB
Как cкачать? Как скачать Один против всех через торрент | UTorrent

28-11-2019 20:33  

Отключить всю рекламу на сайте

10-03-2018 11:13 Один против всех Скачать торрент  

это кином то не назовешь,отстой piratbit.pw



    Дорогой пользователь! Огромная просьба, поблагодарите релизера, оцените раздачу и оставьте свои комментарий, если Вы скачали Один против всех через торрент бесплатно! Внесите свою лепту в развитие PiratBit!
    Комментировать посты могут только пользователи прошедшие не сложную регистрацию
    Показать сообщения:    

    Один против всех через торрент
    Скачать бесплатно Один против всех
    Один против всех скачать торрент
    Один против всех смотреть онлайн
    Cкачать фильм Один против всех бесплатно
    Один против всех скачать торрент в хорошем качестве
    Один против всех смотреть онлайн бесплатно в хорошем качестве


    Вы не можете начинать темы
    Вы не можете отвечать на сообщения
    Вы не можете редактировать свои сообщения
    Вы не можете удалять свои сообщения
    Вы не можете голосовать в опросах
    Вы не можете прикреплять файлы к сообщениям
    Вы можете скачивать файлы