1 сезон

3 сезон

iTunes

1

iTunes

DUB Netflix

iTunes

13

1 сезон

RePack

30

Deluxe

pack

Легкие деньги

ВАЖНО

ИГРА 18+

pack

RePack

MK11

RePack

jed

RePack

fifa19

RePack

RDR2

RePack

NEED FOR SPEED™ PAYBACK

4 сезон

9 сезон

Бесстыжие 9 сезон

Все сериалы

все сериалы на PB.wtf

RePack

FAR CRY 5

Anonymous, доброй ночи, мы не успеваем до 1 числа собрать деньги на оплату серверов, помогите нам пожалуйста в это трудное время. В качестве благодарности мы отключим Вам всю рекламу на сайте (укажите свой ник в строку Ваше имя)!

×
  
Magnet ссылка

Малая Москва / Mala Moskwa (Вальдемар Кшистек) [2008 г., Драма, мелодрама, DVDRip-AVC, Не требуется Русский] от ExKinoRay piratbit.pw

Малая Москва через торрент piratbit.pw

Размер: 1.78 GB | Добавлен: 3 года 3 мес. назад | Торрент скачан:14 раз
Скачать  

09-03-2018 16:38 Малая Москва Скачать торрент  

Малая Москва / Mala Moskwa
Год выпуска: 2008
Страна: Польша
Жанр: Драма, мелодрама
Продолжительность: 01:53:33
Перевод: Не требуется Русский

Режиссер: Вальдемар Кшистек

Премьера в мире: 28 ноября 2008

rating

В ролях: Светлана Ходченкова, Леслав Цурек, Дмитрий Ульянов, Юрий Ицков, Алексей Горбунов, Артем Ткаченко, Елена Лезчинска, Тереза Савицка, Эдвин Петрыкат, Пжемыслав Блущ

Описание: К отставному русскому военному офицеру приезжает дочка. Отец, рассказывая о своей жене, вспоминает ежедневную жизнь в «Малой Москве» в шестидесятых годах XX века.
Тогда молодой капитан вместе с красивой женой Верой, был послан в самую «крутую» советскую базу в Польше, в Легници. В Легници Вера знакомится с Михаилом, польским подпоручиком, который с самой первой встречи старается сблизиться с красивой россиянкой…

Качество: DVDRip-AVC
Формат: MKV
Видео кодек: MPEG4
Аудио кодек: AC3
Видео: MPEG-4 AVC, 1800 Кбит/с, 720x436@1024x436, 25 кадров/сек
Аудио#1: AC3, 6 ch, 448 Кбит/с, 48 КГц
Релиз от:




raw [info]: 720x436p 64:45 @ 25/1 fps (cfr)
x264 [info]: using SAR=64/45
x264 [info]: using cpu capabilities: MMX2 SSE2Fast LZCNT
x264 [info]: profile High, level 4.1
x264 [info]: frame I:1122 Avg QP:13.79 size: 45618
x264 [info]: frame P:37268 Avg QP:16.56 size: 20181
x264 [info]: frame B:131940 Avg QP:18.56 size: 5531
x264 [info]: consecutive B-frames: 2.0% 2.9% 12.4% 12.7% 11.1% 53.0% 4.1% 0.6% 0.3% 0.4% 0.2% 0.0% 0.0% 0.0% 0.0% 0.0% 0.1%
-----
Общее
Уникальный идентификатор : 204279288039623653285218754226884771022 (0x99AEC2814B204601AD35B349D208FCCE)
Полное имя : D:\ExKinoRay\Malaja.Moskwa.2008.DVDRip-AVC.ExKinoRay.mkv
Формат : Matroska
Версия формата : Version 2
Размер файла : 1,78 Гбайт
Продолжительность : 1 ч. 53 м.
Общий поток : 2250 Кбит/сек
Дата кодирования : UTC 2018-03-09 14:05:42
Программа кодирования : mkvmerge v7.8.0 ('River Man') 32bit built on Apr 3 2015 12:11:22
Библиотека кодирования : libebml v1.3.1 + libmatroska v1.4.2

Видео
Идентификатор : 1
Формат : AVC
Формат/Информация : Advanced Video Codec
Профиль формата : High@L4.1
Параметр CABAC формата : Да
Параметр ReFrames формата : 14 кадров
Идентификатор кодека : V_MPEG4/ISO/AVC
Продолжительность : 1 ч. 53 м.
Битрейт : 1800 Кбит/сек
Ширина : 720 пикселей
Высота : 436 пикселей
Соотношение сторон : 2,35:1
Режим частоты кадров : Постоянный
Частота кадров : 25,000 кадров/сек
Цветовое пространство : YUV
Субдискретизация насыщенности : 4:2:0
Битовая глубина : 8 бит
Тип развёртки : Прогрессивная
Бит/(Пиксели*Кадры) : 0.229
Размер потока : 1,39 Гбайт (78%)
Библиотека кодирования : x264 core 148 r2638 7599210
Настройки программы : cabac=1 / ref=14 / deblock=1:-2:-2 / analyse=0x3:0x133 / me=umh / subme=10 / psy=1 / psy_rd=1.05:0.15 / mixed_ref=1 / me_range=32 / chroma_me=1 / trellis=2 / 8x8dct=1 / cqm=0 / deadzone=21,11 / fast_pskip=0 / chroma_qp_offset=-3 / threads=4 / lookahead_threads=1 / sliced_threads=0 / nr=0 / decimate=0 / interlaced=0 / bluray_compat=0 / constrained_intra=0 / bframes=16 / b_pyramid=2 / b_adapt=2 / b_bias=0 / direct=3 / weightb=1 / open_gop=0 / weightp=2 / keyint=250 / keyint_min=25 / scenecut=40 / intra_refresh=0 / rc=2pass / mbtree=0 / bitrate=1800 / ratetol=1.0 / qcomp=0.60 / qpmin=0 / qpmax=69 / qpstep=4 / cplxblur=20.0 / qblur=0.5 / ip_ratio=1.40 / pb_ratio=1.30 / aq=1:1.00
Язык : English
Default : Да
Forced : Нет
Цветовой диапазон : Limited
Основные цвета : BT.601 NTSC
Характеристики трансфера : BT.601
Коэффициенты матрицы : BT.601

Аудио
Идентификатор : 2
Формат : AC-3
Формат/Информация : Audio Coding 3
Расширение режима : CM (complete main)
Параметр Endianness формата : Big
Идентификатор кодека : A_AC3
Продолжительность : 1 ч. 53 м.
Вид битрейта : Постоянный
Битрейт : 448 Кбит/сек
Каналы : 6 каналов
Расположение каналов : Front: L C R, Side: L R, LFE
Частота : 48,0 КГц
Частота кадров : 31,250 кадров/сек (1536 spf)
Метод сжатия : С потерями
Размер потока : 364 Мбайт (20%)
Язык : Russian
Default : Да
Forced : Нет

piratbit.pw



Скачать Малая Москва через торрент http://d.radikal.ru/d40/1803/ff/483ca02983ee.jpg Скачать фильм Малая Москва через торрент бесплантно в хорошем качестве Описание: К отставному русскому военному офицеру приезжает дочка. Отец, рассказывая о своей жене, вспоминает ежедневную жизнь в «Малой ... 8 10 1
Info! Золотая раздача, скачанное не засчитывается.
Торрент: Зарегистрирован [2018-03-09 16:38] · скачан: 14 раз
Статус: √ проверено
Размер: 1.78 GB
Как cкачать? Как скачать Малая Москва через торрент | UTorrent

28-11-2019 20:33  

Отключить всю рекламу на сайте

11-03-2018 11:36 Малая Москва Скачать торрент  

Очень качественный фильм. Артисты играют превосходно. Американцам надо учиться у поляков как делать пропагандистское кино для Восточной Европы. Высокопробный антисоветизм, очень корректная и красивая антирускость. Стальной кулак в бархатной перчатке. Фильм стоит посмотреть вне зависимости от идеологических предпочтений. Одним- радость, другим- наука. Качество рипа очень хорошее, спасибо за раздачу.
P.S. Основные значения слова *С**а* в славянских языках.
С**а — самка семейства псовых.
С**а — ругательное выражение в славянских языках.
С**а — старинный музыкальный инструмент из Польши.piratbit.pw



    Дорогой пользователь! Огромная просьба, поблагодарите релизера, оцените раздачу и оставьте свои комментарий, если Вы скачали Малая Москва через торрент бесплатно! Внесите свою лепту в развитие PiratBit!
    Комментировать посты могут только пользователи прошедшие не сложную регистрацию
    Показать сообщения:    

    Малая Москва через торрент
    Скачать бесплатно Малая Москва
    Малая Москва скачать торрент
    Малая Москва смотреть онлайн
    Cкачать фильм Малая Москва бесплатно
    Малая Москва скачать торрент в хорошем качестве
    Малая Москва смотреть онлайн бесплатно в хорошем качестве


    Вы не можете начинать темы
    Вы не можете отвечать на сообщения
    Вы не можете редактировать свои сообщения
    Вы не можете удалять свои сообщения
    Вы не можете голосовать в опросах
    Вы не можете прикреплять файлы к сообщениям
    Вы можете скачивать файлы