1 сезон

1 сезон

iTunes

1

КиноПоиск HD

Кинопоиск HD

iTunes

13

1 сезон

RePack

30

Новинка

ВАЖНО

ИГРА 18+

pack

RePack

MK11
pack

Легкие деньги

RePack

jed

RePack

fifa19

RePack

RDR2

RePack

NEED FOR SPEED™ PAYBACK

4 сезон

9 сезон

Бесстыжие 9 сезон

Все сериалы

все сериалы на PB.wtf

RePack

FAR CRY 5
  
Magnet ссылка

Дом кнута / House of Whipcord (Пит Уолкер) [1974 г., ужасы, BDRip] AVO (Рутилов) piratbit.pw

Дом кнута через торрент piratbit.pw

Размер: 1.45 GB | Добавлен: 3 года 1 мес. назад | Торрент скачан:5 раз
Скачать  

09-03-2018 15:25 Дом кнута Скачать торрент  

Дом кнута / House of Whipcord
Год выпуска: 1974
Страна: Великобритания
Жанр: ужасы
Продолжительность: 01:42:32
Перевод: Авторский (В. Рутилов)

Режиссер: Пит Уолкер

rating

В ролях: Барбара Маркам, Патрик Барр, Рэй Брукс, Энн Мишель, Шила Кейт, Дороти Гордон, Роберт Тэйман, Айвор Сэлтер, Каран Дэвид

Описание: На гламурной вечеринке одного из «мужских журналов» некий Марк Десад знакомится с начинающей французской фотомоделью Энн-Мари Ди Верни, и приглашает ее погостить в загородном доме своей мамы. Девушка, очарованная симпатичным и воспитанным молодым человеком, соглашается, и вскоре попадает в огромное поместье, которое оказывается. .. частной тюрьмой! Под управлением полоумной семейки Марка, в ней молодых девушек «судили» за «аморальное поведение», и кидали «исправляться» за решетку.

Качество: BDRip (House.of.Whipcord / BD-Remux)
Формат: AVI
Видео: XviD, 1823 Kбит/с, 720x448, 23.976 кадр/с
Аудио: AC3, 2 ch, 192 Кбит/с
Релиз от: Koenig
скриншот   скриншот   скриншот   скриншот   скриншот   скриншот  

Общее
Полное имя : House.of.Whipcord.1974.BDRip.avi
Формат : AVI
Формат/Информация : Audio Video Interleave
Размер файла : 1,45 Гбайт
Продолжительность : 1 ч. 42 м.
Общий поток : 2024 Кбит/сек
Программа кодирования : VirtualDubMod 1.5.10.2 (build 2540/release)
Библиотека кодирования : VirtualDubMod build 2540/release

Видео
Идентификатор : 0
Формат : MPEG-4 Visual
Профиль формата : Advanced Simple@L5
Параметр BVOP формата : 1
Параметр QPel формата : Нет
Параметр GMC формата : Без точки перехода
Параметр матрицы формата : Выборочная
Идентификатор кодека : XVID
Идентификатор кодека/Подсказка : XviD
Продолжительность : 1 ч. 42 м.
Битрейт : 1823 Кбит/сек
Ширина : 720 пикселей
Высота : 448 пикселей
Соотношение сторон : 16:10
Частота кадров : 23,976 (24000/1001) кадра/сек
Цветовое пространство : YUV
Субдискретизация насыщенности : 4:2:0
Битовая глубина : 8 бит
Тип развёртки : Прогрессивная
Метод сжатия : С потерями
Бит/(Пиксели*Кадры) : 0.236
Размер потока : 1,31 Гбайт (90%)
Библиотека кодирования : XviD 65

Аудио
Идентификатор : 1
Формат : AC-3
Формат/Информация : Audio Coding 3
Параметр Endianness формата : Big
Идентификатор кодека : 2000
Продолжительность : 1 ч. 42 м.
Вид битрейта : Постоянный
Битрейт : 192 Кбит/сек
Каналы : 2 канала
Расположение каналов : Front: L R
Частота : 48,0 КГц
Частота кадров : 31,250 кадров/сек (1536 spf)
Битовая глубина : 16 бит
Метод сжатия : С потерями
Размер потока : 141 Мбайт (9%)
Выравнивание : Разделение по промежуткам
Продолжительность промежутка : 42 мс. (1,00 видеокадр)
Время предзагрузки промежутка : 500 мс.
ServiceKind/String : Complete Main

piratbit.pw



Скачать Дом кнута через торрент http://img12.lostpic.net/2018/03/09/8af306697debd88bbe56f5f6d2d59481.jpg Скачать фильм Дом кнута через торрент бесплантно в хорошем качестве Описание: На гламурной вечеринке одного из «мужских журналов» некий Марк Десад знакомится с начинающей французской фотомоделью Энн-Мари Ди ... 5 10 1
Торрент: Зарегистрирован [2018-03-09 15:25] · скачан: 5 раз
Статус: √ проверено
Размер: 1.45 GB
Как cкачать? Как скачать Дом кнута через торрент | UTorrent

28-11-2019 20:33  

Отключить всю рекламу на сайте

    Дорогой пользователь! Огромная просьба, поблагодарите релизера, оцените раздачу и оставьте свои комментарий, если Вы скачали Дом кнута через торрент бесплатно! Внесите свою лепту в развитие PiratBit!
    Комментировать посты могут только пользователи прошедшие не сложную регистрацию
    Показать сообщения:    

    Дом кнута через торрент
    Скачать бесплатно Дом кнута
    Дом кнута скачать торрент
    Дом кнута смотреть онлайн
    Cкачать фильм Дом кнута бесплатно
    Дом кнута скачать торрент в хорошем качестве
    Дом кнута смотреть онлайн бесплатно в хорошем качестве


    Вы не можете начинать темы
    Вы не можете отвечать на сообщения
    Вы не можете редактировать свои сообщения
    Вы не можете удалять свои сообщения
    Вы не можете голосовать в опросах
    Вы не можете прикреплять файлы к сообщениям
    Вы можете скачивать файлы