Marvel's Avengers Deluxe Edition (супер цена) 159р. Внимание количество ограничено!!!

2 сезон

iTunes

iTunes

1

iTunes

iTunes

iTunes

WEBRip

iTunes

30
pack

Новость дня

ВАЖНО

!!Акция!!

Alien_RageХит недели

RePack

Horizon Zero Dawn

ИГРА 18+

pack

RePack

jed

!!Акция!!

Alien_Rage

RePack

fifa19

RePack

Assassins Creed: Odyssey

RePack

NEED FOR SPEED™ PAYBACK

4 сезон

9 сезон

Бесстыжие 9 сезон

Все сериалы

все сериалы на PB.wtf

RePack

FAR CRY 5
  

Женщины против мужчин: Крымские каникулы (Леонид Марголин) [2018, комедия, мелодрама, WEB-DL 1080p] [iTunes] piratbit.pw

Женщины против мужчин: Крымские каникулы через торрент piratbit.pw

Раздают: 1 [ 0 KB/s ]
Размер: 2.71 GB | Добавлен: 2 года 6 мес. назад | Торрент скачан:726 раз
Скачать  

08-03-2018 08:57 Женщины против мужчин: Крымские каникулы Скачать торрент  

Женщины против мужчин: Крымские каникулыГод выпуска: 2018
Страна: Россия
Жанр: комедия, мелодрама
Продолжительность: 01:15:33
Перевод: Не требуется | iTunes
Субтитры: отсутствуют

Режиссер: Леонид Марголин



В ролях:

Настасья Самбурская, Наталья Рудова, Мария Кравченко, Александр Головин, Денис Косяков, Роман Юнусов, Мария Горбань, Вадим Галыгин

Описание:

Отправиться в отпуск сразу после развода - довольно заманчивая идея. Особенно, если за компанию можно прихватить двух своих лучших приятелей. Но, когда в том же отеле встречаешь свою бывшую жену-красавицу, то это к неприятностям. А если экс-супруга оказывается там же с двумя своими лучшими подругами, которые к тому же являются бывшими женами твоих друзей, - то легкая месть за старые обиды превращается в увлекательную «войну» и незабываемые приключения.

Качество: WEB-DL 1080p
Формат: MKV

Видео: 1920x802, 23.976 fps, 4626 Кбит/с
Аудио: 384 kb/s, 2 ch, 48.0 KHz
скриншот   скриншот   скриншот  

General
Unique ID : 209611763214215145412646262259231545950 (0x9DB1C1D462DEAD579D8CFEE52DCCDA5E)
Complete name : C:UsersUserDesktopЖенщины против мужчин.2O17.O.WEB-DL.1O8Op.mkv
Format : Matroska
Format version : Version 2
File size : 2.71 GiB
Duration : 1 h 15 min
Overall bit rate : 5 112 kb/s
Encoded date : UTC 2018-03-07 19:40:22
Writing application : mkvmerge v8.3.0 ('Over the Horizon') 64bit
Writing library : libebml v1.3.1 + libmatroska v1.4.2

Video
ID : 1
Format : AVC
Format/Info : Advanced Video Codec
Format profile : High@L4
Format settings : CABAC / 5 Ref Frames
Format settings, CABAC : Yes
Format settings, ReFrames : 5 frames
Codec ID : V_MPEG4/ISO/AVC
Duration : 1 h 15 min
Bit rate : 4 626 kb/s
Width : 1 920 pixels
Height : 802 pixels
Display aspect ratio : 2.40:1
Frame rate mode : Constant
Frame rate : 24.000 FPS
Color space : YUV
Chroma subsampling : 4:2:0
Bit depth : 8 bits
Scan type : Progressive
Bits/(Pixel*Frame) : 0.125
Stream size : 2.45 GiB (90%)
Language : English
Default : Yes
Forced : No
Color range : Limited
Color primaries : BT.709
Transfer characteristics : BT.709
Matrix coefficients : BT.709

Audio
ID : 2
Format : AC-3
Format/Info : Audio Coding 3
Codec ID : A_AC3
Duration : 1 h 15 min
Bit rate mode : Constant
Bit rate : 384 kb/s
Channel(s) : 2 channels
Channel positions : Front: L R
Sampling rate : 48.0 kHz
Frame rate : 31.250 FPS (1536 SPF)
Bit depth : 16 bits
Compression mode : Lossy
Stream size : 208 MiB (8%)
Language : Russian
Service kind : Complete Main
Default : Yes
Forced : No

Menu
00:00:00.000 : en:Глава 1
00:06:45.666 : en:Глава 2
00:12:51.791 : en:Глава 3
00:19:51.166 : en:Глава 4
00:25:58.957 : en:Глава 5
00:31:46.082 : en:Глава 6
00:37:20.457 : en:Глава 7
00:42:37.165 : en:Глава 8
00:50:08.123 : en:Глава 9
00:55:53.873 : en:Глава 10
01:01:13.123 : en:Глава 11
01:06:33.081 : en:Глава 12

piratbit.pw



Скачать Женщины против мужчин: Крымские каникулы через торрент http://pic1.kartinco.top/images/11/m5ov6.jpg Скачать фильм Женщины против мужчин: Крымские каникулы через торрент бесплантно в хорошем качестве Описание: Отправиться в отпуск сразу после развода - довольно заманчивая идея. Особенно, если за компанию можно прихватить двух своих ... 7.7 10 21
Торрент: Зарегистрирован [2018-03-08 08:57] · скачан: 726 раз
Статус: T временная
Размер: 2.71 GB
Как cкачать? Как скачать Женщины против мужчин: Крымские каникулы через торрент | qTorrent

% Раздел Тема Автор DL S | L
Наши новые фильмы 2018-2019 [ 1.37 GB ] Женщины против мужчин: Крымские каникулы [2018 WEB-DLRip] bober100 Скачать
1 | 0
T Наши новые фильмы 2018-2019 [ 1.46 GB ] Женщины против мужчин: Крымские каникулы [2018 WEB-DLRip-AVC] bober100 Скачать
4 | 0
T Наши фильмы (HD, WEB-DL 720p, 1080p) [ 2.33 GB ] Женщины против мужчин: Крымские каникулы [2018 WEB-DL 720p] bober100 Скачать
1 | 0

28-11-2019 20:33  

Отключить всю рекламу на сайте

    Дорогой пользователь! Огромная просьба, поблагодарите релизера, оцените раздачу и оставьте свои комментарий, если Вы скачали Женщины против мужчин: Крымские каникулы через торрент бесплатно! Внесите свою лепту в развитие PiratBit!
    Комментировать посты могут только пользователи прошедшие не сложную регистрацию
    Показать сообщения:    

    Женщины против мужчин: Крымские каникулы через торрент
    Скачать бесплатно Женщины против мужчин: Крымские каникулы
    Женщины против мужчин: Крымские каникулы скачать торрент
    Женщины против мужчин: Крымские каникулы смотреть онлайн
    Cкачать фильм Женщины против мужчин: Крымские каникулы бесплатно
    Женщины против мужчин: Крымские каникулы скачать торрент в хорошем качестве
    Женщины против мужчин: Крымские каникулы смотреть онлайн бесплатно в хорошем качестве


    Вы не можете начинать темы
    Вы не можете отвечать на сообщения
    Вы не можете редактировать свои сообщения
    Вы не можете удалять свои сообщения
    Вы не можете голосовать в опросах
    Вы не можете прикреплять файлы к сообщениям
    Вы можете скачивать файлы