1 сезон

1 сезон

iTunes

1

КиноПоиск HD

Кинопоиск HD

iTunes

13

1 сезон

RePack

30

Ultimate

ВАЖНО

ИГРА 18+

pack

RePack

MK11
pack

Легкие деньги

RePack

jed

RePack

fifa19

RePack

RDR2

RePack

NEED FOR SPEED™ PAYBACK

4 сезон

9 сезон

Бесстыжие 9 сезон

Все сериалы

все сериалы на PB.wtf

RePack

FAR CRY 5
  
Magnet ссылка

Битва на Неретве / Bitka na Neretvi (Велько Булайич) [1969, драма, военный, BDRip 720p by msltel] AVO piratbit.pw

Битва на Неретве через торрент piratbit.pw

Размер: 7.65 GB | Добавлен: 3 года 1 мес. назад | Торрент скачан:7 раз
Скачать  

06-03-2018 07:09 Битва на Неретве Скачать торрент  

Название: Битва на Неретве
Оригинальное название: Bitka na Neretvi
Год выпуска: 1969
Страна: Италия, Югославия, Германия (ФРГ)
Жанр: драма, военный
Продолжительность: 02:29:54
Перевод: авторский

Режиссер: Велько Булайич
В ролях: Борис Дворник, Олег Видов, Орсон Уэллс, Юл Бриннер, Франко Неро, Сильва Кошина, Курд Юргенс, Энтони Досон, Велимир 'Бата' Живоинович, Говард Росс, Стоян Аранджелович, Шарль Милло, Божидар Смилянич, Павле Вуисич, Деметер Битенк, Ранко Гусевац, Милена Дравич, Заим Музаферия, Слободан Велимирович, Любиша Самарджич, Никола-Коле Ангеловски, Миха Балох, Фарук Беголли, Душан Булаич, Драгомир Фельба, Васа Пантелич, Спела Розин, Фабиян Шовагович, Абдуррахман Шала, Милош Кандич, Сергей Бондарчук ст., Харди Крюгер, Лойзе Розман, Ристо Шишков, Симе Ягаринек

О фильме: Югославия. Начало 1943 года. По личному приказу Гитлера генералы начали исполнять план «Вайс» — уничтожение партизанского государства. Немецкие и итальянские части из 18 дивизий, при помощи отечественных предателей, оттеснили главные силы Народно-освободительной армии. Соотношение вражеских и партизанских частей было 6:1. Кроме того, у партизан было 4500 раненых и сыпотифозных бойцов. Ставка с больными и ранеными попали в окружение в долине реки Неретвы. Остался только мост через бушующую и ледяную Неретву. На противоположном берегу ждали сильные вражеские части, подготавливаясь к кровавой резне раненых бойцов и беспомощного народа. Тито приказал взорвать мост на Неретве. Удивлённый враг сейчас же перебросил свои части на другую сторону, предполагая, что партизаны попытаются вырваться из кольца окружения. Партизаны же врагу подготовили совсем неожиданный сюрприз. В течение ночи они построили возле разрушенного моста монтажный временный мост, через который переправили части, раненых, больных, а также и всё гражданское население, которое было с партизанами... Фильм основан на реальных событиях истории Югославии времён Второй мировой войны.



Качество: BDRip 720p
Формат: MKV
Видео: MPEG-4 AVC, 6409 Kбит/с, 1280x544
Аудио 1: русский, AC3, 448 kbps, 6 ch [авторский, Юрий Сербин]
Аудио 2: немецкий, AC3, 448 kbps, 6 ch, 48 kHz [оригинал]
Главы/чаптеры
Общее
Уникальный идентификатор : 188736857364183928404208555507241810433 (0x8DFD658261CF12FCB6C5071461E97A01)
Полное имя : D:\Video\Битва на Неретве.1969.BDRip.720p by msltel.mkv
Формат : Matroska
Версия формата : Version 4 / Version 2
Размер файла : 7,65 Гбайт
Продолжительность : 2 ч. 29 м.
Общий поток : 7306 Кбит/сек
Название фильма : Rip by msltel
Дата кодирования : UTC 2018-03-05 13:22:12
Программа кодирования : mkvmerge v8.2.0 ('World of Adventure') 64bit
Библиотека кодирования : libebml v1.3.1 + libmatroska v1.4.2

Видео
Идентификатор : 1
Формат : AVC
Формат/Информация : Advanced Video Codec
Профиль формата : High@L4.1
Настройки формата : CABAC / 9 Ref Frames
Параметр CABAC формата : Да
Параметр RefFrames формата : 9 кадров
Идентификатор кодека : V_MPEG4/ISO/AVC
Продолжительность : 2 ч. 29 м.
Битрейт : 6409 Кбит/сек
Ширина : 1280 пикселей
Высота : 544 пикселя
Соотношение сторон : 2,35:1
Режим частоты кадров : Постоянный
Частота кадров : 23,976 (24000/1001) кадра/сек
Цветовое пространство : YUV
Субдискретизация насыщенности : 4:2:0
Битовая глубина : 8 бит
Тип развёртки : Прогрессивная
Бит/(Пиксели*Кадры) : 0.384
Размер потока : 6,71 Гбайт (88%)
Библиотека кодирования : x264 core 146 r2538 121396c
Настройки программы : cabac=1 / ref=9 / deblock=1:-3:-2 / analyse=0x3:0x113 / me=umh / subme=11 / psy=1 / psy_rd=1.00:0.15 / mixed_ref=1 / me_range=32 / chroma_me=1 / trellis=2 / 8x8dct=1 / cqm=0 / deadzone=21,11 / fast_pskip=0 / chroma_qp_offset=-3 / threads=6 / lookahead_threads=1 / sliced_threads=0 / nr=0 / decimate=1 / interlaced=0 / bluray_compat=0 / constrained_intra=0 / bframes=9 / b_pyramid=2 / b_adapt=2 / b_bias=0 / direct=1 / weightb=1 / open_gop=0 / weightp=2 / keyint=230 / keyint_min=23 / scenecut=40 / intra_refresh=0 / rc_lookahead=40 / rc=crf / mbtree=0 / crf=20.0 / qcomp=0.60 / qpmin=0 / qpmax=69 / qpstep=4 / vbv_maxrate=62500 / vbv_bufsize=78125 / crf_max=0.0 / nal_hrd=none / filler=0 / ip_ratio=1.40 / pb_ratio=1.30 / aq=1:1.00
Язык : German
Default : Да
Forced : Нет

Аудио #1
Идентификатор : 2
Формат : AC-3
Формат/Информация : Audio Coding 3
Идентификатор кодека : A_AC3
Продолжительность : 2 ч. 29 м.
Вид битрейта : Постоянный
Битрейт : 448 Кбит/сек
Каналы : 6 каналов
Расположение каналов : Front: L C R, Side: L R, LFE
Частота : 48,0 КГц
Частота кадров : 31,250 кадров/сек (1536 SPF)
Битовая глубина : 16 бит
Метод сжатия : С потерями
Размер потока : 480 Мбайт (6%)
ServiceKind/String : Complete Main
Default : Да
Forced : Нет

Аудио #2
Идентификатор : 3
Формат : AC-3
Формат/Информация : Audio Coding 3
Идентификатор кодека : A_AC3
Продолжительность : 2 ч. 29 м.
Вид битрейта : Постоянный
Битрейт : 448 Кбит/сек
Каналы : 6 каналов
Расположение каналов : Front: L C R, Side: L R, LFE
Частота : 48,0 КГц
Частота кадров : 31,250 кадров/сек (1536 SPF)
Битовая глубина : 16 бит
Метод сжатия : С потерями
Размер потока : 480 Мбайт (6%)
Заголовок : original
Язык : German
ServiceKind/String : Complete Main
Default : Нет
Forced : Нет

Меню
00:00:00.000 : :Chapter 01
00:10:01.517 : :Chapter 02
00:19:51.147 : :Chapter 03
00:29:47.702 : :Chapter 04
00:38:02.530 : :Chapter 05
00:57:11.886 : :Chapter 06
01:08:27.937 : :Chapter 07
01:19:55.874 : :Chapter 08
01:28:13.412 : :Chapter 09
01:43:20.986 : :Chapter 10
02:00:44.528 : :Chapter 11
02:14:43.116 : :Chapter 12
piratbit.pw



Скачать Битва на Неретве через торрент https://d.radikal.ru/d34/1803/8b/c3342c64eb13.jpg Скачать фильм Битва на Неретве через торрент бесплантно в хорошем качестве О фильме: Югославия. Начало 1943 года. По личному приказу Гитлера генералы начали исполнять план «Вайс» — уничтожение партизанского ... 10 10 1
Info! Золотая раздача, скачанное не засчитывается.
Торрент: Зарегистрирован [2018-03-06 07:09] · скачан: 7 раз
Статус: √ проверено
Размер: 7.65 GB
Как cкачать? Как скачать Битва на Неретве через торрент | UTorrent

% Раздел Тема Автор DL S | L
Фильмы с авторской озвучкой [ 18.65 GB ] Битва на Неретве / Bitka na Neretvi [1969 военный BDRip 1080p by msltel] AVO msltel Скачать
1 | 0

28-11-2019 20:33  

Отключить всю рекламу на сайте

    Дорогой пользователь! Огромная просьба, поблагодарите релизера, оцените раздачу и оставьте свои комментарий, если Вы скачали Битва на Неретве через торрент бесплатно! Внесите свою лепту в развитие PiratBit!
    Комментировать посты могут только пользователи прошедшие не сложную регистрацию
    Показать сообщения:    

    Битва на Неретве через торрент
    Скачать бесплатно Битва на Неретве
    Битва на Неретве скачать торрент
    Битва на Неретве смотреть онлайн
    Cкачать фильм Битва на Неретве бесплатно
    Битва на Неретве скачать торрент в хорошем качестве
    Битва на Неретве смотреть онлайн бесплатно в хорошем качестве


    Вы не можете начинать темы
    Вы не можете отвечать на сообщения
    Вы не можете редактировать свои сообщения
    Вы не можете удалять свои сообщения
    Вы не можете голосовать в опросах
    Вы не можете прикреплять файлы к сообщениям
    Вы можете скачивать файлы