1 сезон

1 сезон

iTunes

1

КиноПоиск HD

Кинопоиск HD

iTunes

13

1 сезон

RePack

30

Новинка

ВАЖНО

ИГРА 18+

pack

RePack

MK11
pack

Легкие деньги

RePack

jed

RePack

fifa19

RePack

RDR2

RePack

NEED FOR SPEED™ PAYBACK

4 сезон

9 сезон

Бесстыжие 9 сезон

Все сериалы

все сериалы на PB.wtf

RePack

FAR CRY 5
  
Magnet ссылка

Мужчины Эмдена / Die Männer der Emden (Беренгар Фаль ) [2012, драма, приключения, BDRip-AVC от _denis_100 | NNNB] AVO (Ю. Сербин) piratbit.pw

Мужчины Эмдена через торрент piratbit.pw

Размер: 2.91 GB | Добавлен: 3 года 1 мес. назад | Торрент скачан:34 раза
Скачать  

27-02-2018 15:40 Мужчины Эмдена Скачать торрент  

Мужчины Эмдена / Die Männer der Emden
«Based on the true story of 50 German sailors who went on an incredible journey of 10.000 miles in 1914»


Год выпуска: 2012
Страна: Германия
Жанр: драма, приключения
Продолжительность: 02:28:18
Перевод: Авторский одноголосый

Режиссер: Беренгар Фаль
В ролях: Сибель Кекилли , Кен Дукен , Фелицитас Волль , Криз Крис Генри Харриз , Себастьян Бломберг , Оливер Кориттке , Кристиан Нёте , Андреас Пейп , Вольфганг Винклер , Маттиас Шлоо , Хим ван Хаувенинге , Михаэль Лотт
Описание:
Фильм основан на реальных событиях. 1914 год. Первый год Первой Мировой Войны. Небольшой крейсер «Эмден». История 50 немецких моряков, которые отправились в невероятное путешествие в 10 000 миль.

Качество: BDRip-AVC
Контейнер (Расширение): MKV
Видео: 960x428, 1912 Кбит/сек, 24 кадр/сек, 0,194 Бит/[Пиксели*Кадры]
Аудио №1: русский / AC3 / 5.1 / 48 kHz / 448 kbps / |Авторский одноголосый, Ю. Сербин |
Аудио №2: немецкий / AC3 / 5.1 / 48 kHz / 448 kbps /
Навигация по главам(Чаптеры): естьАвтор рипа: Группа:
Format : Matroska
Format version : Version 2
File size : 2.91 GiB
Duration : 2 h 28 min
Overall bit rate : 2 810 kb/s
Movie name : Die Manner der Emden.(2012).BDRip-AVC.[denis100]
Encoded date : UTC 2018-02-27 15:23:07
Writing application : mkvmerge v5.8.0 ('No Sleep / Pillow') built on Sep 2 2012 15:37:04
Writing library : libebml v1.2.3 + libmatroska v1.3.0

Video
ID : 1
Format : AVC
Format/Info : Advanced Video Codec
Format profile : High@L4.1
Format settings, CABAC : Yes
Format settings, ReFrames : 11 frames
Codec ID : V_MPEG4/ISO/AVC
Duration : 2 h 28 min
Bit rate : 1 912 kb/s
Width : 960 pixels
Height : 428 pixels
Display aspect ratio : 2.25:1
Frame rate mode : Constant
Frame rate : 24.000 FPS
Color space : YUV
Chroma subsampling : 4:2:0
Bit depth : 8 bits
Scan type : Progressive
Bits/(Pixel*Frame) : 0.194
Stream size : 1.92 GiB (66%)
Title : Die Manner der Emden.(2012).BDRip-AVC.[denis100]
Writing library : x264 core 152 r2851 ba24899
Encoding settings : cabac=1 / ref=11 / deblock=1:-3:-3 / analyse=0x3:0x133 / me=umh / subme=11 / psy=1 / psy_rd=1.00:0.05 / mixed_ref=1 / me_range=32 / chroma_me=1 / trellis=2 / 8x8dct=1 / cqm=0 / deadzone=21,11 / fast_pskip=0 / chroma_qp_offset=-3 / threads=6 / lookahead_threads=1 / sliced_threads=0 / nr=0 / decimate=1 / interlaced=0 / bluray_compat=0 / constrained_intra=0 / bframes=10 / b_pyramid=2 / b_adapt=2 / b_bias=0 / direct=3 / weightb=1 / open_gop=0 / weightp=2 / keyint=240 / keyint_min=24 / scenecut=40 / intra_refresh=0 / rc=2pass / mbtree=0 / bitrate=1912 / ratetol=1.0 / qcomp=0.60 / qpmin=0 / qpmax=69 / qpstep=4 / cplxblur=20.0 / qblur=0.5 / ip_ratio=1.40 / pb_ratio=1.30 / aq=1:0.95
Language : English
Default : Yes
Forced : No

Audio #1
ID : 2
Format : AC-3
Format/Info : Audio Coding 3
Mode extension : CM (complete main)
Format settings, Endianness : Big
Codec ID : A_AC3
Duration : 2 h 28 min
Bit rate mode : Constant
Bit rate : 448 kb/s
Channel(s) : 6 channels
Channel positions : Front: L C R, Side: L R, LFE
Sampling rate : 48.0 kHz
Frame rate : 31.250 FPS (1536 spf)
Compression mode : Lossy
Stream size : 475 MiB (16%)
Title : AVO, Ю.Сербин
Language : Russian
Default : Yes
Forced : No

Audio #2
ID : 3
Format : AC-3
Format/Info : Audio Coding 3
Mode extension : CM (complete main)
Format settings, Endianness : Big
Codec ID : A_AC3
Duration : 2 h 28 min
Bit rate mode : Constant
Bit rate : 448 kb/s
Channel(s) : 6 channels
Channel positions : Front: L C R, Side: L R, LFE
Sampling rate : 48.0 kHz
Frame rate : 31.250 FPS (1536 spf)
Compression mode : Lossy
Stream size : 475 MiB (16%)
Language : German
Default : No
Forced : No

Menu
00:00:00.000 : en:Chapter 01
00:10:50.416 : en:Chapter 02
00:24:07.916 : en:Chapter 03
00:33:47.625 : en:Chapter 04
00:43:09.292 : en:Chapter 05
00:52:44.292 : en:Chapter 06
01:03:31.458 : en:Chapter 07
01:15:38.457 : en:Chapter 08
01:25:20.417 : en:Chapter 09
01:36:09.792 : en:Chapter 10
01:45:36.375 : en:Chapter 11
01:55:41.917 : en:Chapter 12
02:05:54.167 : en:Chapter 13
02:18:49.667 : en:Chapter 14
piratbit.pw



Скачать Мужчины Эмдена через торрент http://i3.imageban.ru/out/2018/02/27/758e06aee02b3f90a86cbffc4461466e.png Скачать фильм Мужчины Эмдена через торрент бесплантно в хорошем качестве Описание:Фильм основан на реальных событиях. 1914 год. Первый год Первой Мировой Войны. Небольшой крейсер «Эмден». История 50 немецких ... 9.3 10 3
Info! Золотая раздача, скачанное не засчитывается.
Торрент: Зарегистрирован [2018-02-27 15:40] · скачан: 34 раз
Статус: √ проверено
Размер: 2.91 GB
Как cкачать? Как скачать Мужчины Эмдена через торрент | UTorrent

% Раздел Тема Автор DL S | L
Фильмы с авторской озвучкой [ 2.1 GB ] Мужчины Эмдена / Die Männer der Emden [2012 военный BDRip] [Theatrical cut] [AVO] killermax2013 Скачать
1 | 0

28-11-2019 20:33  

Отключить всю рекламу на сайте


03-03-2018 07:44 Мужчины Эмдена Скачать торрент  

Интересный фильм, хорошо сыгран и снят. Очень приятно отличается от безвкусных и пафосных американских сказок на основе реальных событий. Все правдоподобно и со вкусом, хорошее немецкое кино. Качество рипа хорошее, РЕКЛАМЫ НЕТ. Спасибо за раздачу.piratbit.pw



    Дорогой пользователь! Огромная просьба, поблагодарите релизера, оцените раздачу и оставьте свои комментарий, если Вы скачали Мужчины Эмдена через торрент бесплатно! Внесите свою лепту в развитие PiratBit!
    Комментировать посты могут только пользователи прошедшие не сложную регистрацию
    Показать сообщения:    

    Мужчины Эмдена через торрент
    Скачать бесплатно Мужчины Эмдена
    Мужчины Эмдена скачать торрент
    Мужчины Эмдена смотреть онлайн
    Cкачать фильм Мужчины Эмдена бесплатно
    Мужчины Эмдена скачать торрент в хорошем качестве
    Мужчины Эмдена смотреть онлайн бесплатно в хорошем качестве


    Вы не можете начинать темы
    Вы не можете отвечать на сообщения
    Вы не можете редактировать свои сообщения
    Вы не можете удалять свои сообщения
    Вы не можете голосовать в опросах
    Вы не можете прикреплять файлы к сообщениям
    Вы можете скачивать файлы