Marvel's Avengers Deluxe Edition (супер цена) 159р. Внимание количество ограничено!!!

2 сезон

iTunes

iTunes

1

iTunes

iTunes

iTunes

WEBRip

iTunes

30
pack

Новость дня

ВАЖНО

!!Акция!!

Alien_RageХит недели

RePack

Horizon Zero Dawn

ИГРА 18+

pack

RePack

jed

!!Акция!!

Alien_Rage

RePack

fifa19

RePack

Assassins Creed: Odyssey

RePack

NEED FOR SPEED™ PAYBACK

4 сезон

9 сезон

Бесстыжие 9 сезон

Все сериалы

все сериалы на PB.wtf

RePack

FAR CRY 5
  

Марья Искусница (Александр Роу) [1960, СССР, сказка, семейный, приключения, DVDRip-AVC от AVP Studio] piratbit.pw

Марья Искусница через торрент piratbit.pw

Размер: 1.09 GB | Добавлен: 2 года 6 мес. назад | Торрент скачан:57 раз
Скачать  

27-02-2018 08:49 Марья Искусница Скачать торрент  

Марья Искусница
Страна: СССР
Производство: К/ст им. Горького

Жанр: сказка, семейный, приключения
Год выпуска: 1960
Продолжительность: 01:14:56

Перевод: Не требуется
Cубтитры: нет
Оригинальная аудиодорожка: русский

Режиссер: Александр Роу

В ролях:
Михаил Кузнецов, Нинель Мышкова, Виктор Перевалов, Ольга Хачапуридзе, Анатолий Кубацкий, Георгий Милляр, Вера Алтайская, Александр Хвыля, Никита Кондратьев, Сергей Троицкий, Константин Немоляев, Владимир Пицек, Константин Старостин, Михаил Щербаков, Александр Баранов...
Об актёрах подробней

Описание:
После долгой службы возвращался в родные края солдат (Михаил Кузнецов). Идёт солдат по берёзовой роще, песню поёт. Услыхали песню медвежата, подбежали к солдату, просят выручить из капкана их деда. Освободил солдат медведя и пошёл дальше. Вскоре узнал он, что поселилось в лесу чудище неслыханное, и от него идут все напасти. Чудище это – водяной царь Водокрут Тринадцатый(Анатолий Кубацкий), утащивший в своё водяное царство Марью-искусницу (Нинель Мышкова), мать Ванюши (Витя Перевалов), найденного солдатом в лесу.

Источник: DVD9 R5
Качество видео: DVDRip-AVC
Формат видео: MKV

Видео: 688->760x570 (4:3), 25,000 кадров/сек, H264 ~ 1631 kbps avg, 0.166 bit/pixel
Аудио: 48 kHz, Dolby Digital AC3 5.1, 448 kbps

Раздача от:
Общее
Полное имя : Mariya-iskusnica.1960.DVDRip-AVC_[New-team]_by_AVP_Studio.mkv
Формат : Matroska
Версия формата : Version 2
Размер файла : 1,09 Гбайт
Продолжительность : 1 ч. 14 м.
Общий поток : 2081 Кбит/сек
Дата кодирования : UTC 2018-02-26 21:32:47
Программа кодирования : mkvmerge v6.1.0 ('Old Devil') built on Mar 4 2013 09:10:42
Библиотека кодирования : libebml v1.3.0 + libmatroska v1.4.0

Видео
Идентификатор : 1
Формат : AVC
Формат/Информация : Advanced Video Codec
Профиль формата : High@L4.1
Настройки формата : CABAC / 10 Ref Frames
Параметр CABAC формата : Да
Параметр RefFrames формата : 10 кадров
Идентификатор кодека : V_MPEG4/ISO/AVC
Продолжительность : 1 ч. 14 м.
Битрейт : 1631 Кбит/сек
Ширина : 688 пикселей
Высота : 570 пикселей
Соотношение сторон : 4:3
Режим частоты кадров : Постоянный
Частота кадров : 25,000 кадров/сек
Цветовое пространство : YUV
Субдискретизация насыщенности : 4:2:0
Битовая глубина : 8 бит
Тип развёртки : Прогрессивная
Бит/(Пиксели*Кадры) : 0.166
Размер потока : 853 Мбайт (76%)
Библиотека кодирования : x264 core 130 r2273 b3065e6
Настройки программы : cabac=1 / ref=10 / deblock=1:-2:-1 / analyse=0x3:0x113 / me=umh / subme=10 / psy=1 / psy_rd=1.00:0.00 / mixed_ref=1 / me_range=32 / chroma_me=1 / trellis=2 / 8x8dct=1 / cqm=0 / deadzone=21,11 / fast_pskip=1 / chroma_qp_offset=-2 / threads=6 / lookahead_threads=1 / sliced_threads=0 / nr=0 / decimate=0 / interlaced=0 / bluray_compat=0 / constrained_intra=0 / bframes=8 / b_pyramid=2 / b_adapt=2 / b_bias=0 / direct=3 / weightb=1 / open_gop=0 / weightp=2 / keyint=250 / keyint_min=25 / scenecut=40 / intra_refresh=0 / rc=2pass / mbtree=0 / bitrate=1631 / ratetol=1.0 / qcomp=0.60 / qpmin=0 / qpmax=69 / qpstep=4 / cplxblur=20.0 / qblur=0.5 / ip_ratio=1.40 / pb_ratio=1.30 / aq=1:1.00
Default : Да
Forced : Нет

Аудио
Идентификатор : 2
Формат : AC-3
Формат/Информация : Audio Coding 3
Идентификатор кодека : A_AC3
Продолжительность : 1 ч. 14 м.
Вид битрейта : Постоянный
Битрейт : 448 Кбит/сек
Каналы : 6 каналов
Расположение каналов : Front: L C R, Side: L R, LFE
Частота : 48,0 КГц
Частота кадров : 31,250 кадров/сек (1536 SPF)
Битовая глубина : 16 бит
Метод сжатия : С потерями
Размер потока : 240 Мбайт (22%)
Default : Да
Forced : Нет
piratbit.pw



Скачать Марья Искусница через торрент http://picplus.ru/img/1802/27/3c5be265.png Скачать фильм Марья Искусница через торрент бесплантно в хорошем качестве Описание:После долгой службы возвращался в родные края солдат (Михаил Кузнецов). Идёт солдат по берёзовой роще, песню поёт. Услыхали песню ... 10 10 1
Info! Золотая раздача, скачанное не засчитывается.
Торрент: Зарегистрирован [2018-02-27 08:49] · скачан: 57 раз
Статус: √ проверено
Размер: 1.09 GB
Как cкачать? Как скачать Марья Искусница через торрент | qTorrent

% Раздел Тема Автор DL S | L
Детские отечественные фильмы [ 745 MB ] Марья Искусница [1960 СССР сказка DVDRip от AVP Studio] AVP Studio Скачать
2 | 0
Детские отечественные фильмы [ 1.09 GB ] Марья Искусница [1960 СССР сказка DVDRip от AVP Studio] AVP Studio Скачать
1 | 0
Детские отечественные фильмы [ 1.09 GB ] Марья-Искусница [1959 DVDRip] VORLKED Скачать
1 | 0
Русское любительское видео [ 92 MB ] Марья-искусница [2011 Amateur Blondes Blowjob Straight CamRip] nikola22 Скачать
1 | 0

28-11-2019 20:33  

Отключить всю рекламу на сайте

27-02-2018 09:31 Марья Искусница Скачать торрент  

Топик был перенесен из форума Кино СССР в форум Детские отечественные фильмы


bober100piratbit.pw



    Дорогой пользователь! Огромная просьба, поблагодарите релизера, оцените раздачу и оставьте свои комментарий, если Вы скачали Марья Искусница через торрент бесплатно! Внесите свою лепту в развитие PiratBit!
    Комментировать посты могут только пользователи прошедшие не сложную регистрацию
    Показать сообщения:    

    Марья Искусница через торрент
    Скачать бесплатно Марья Искусница
    Марья Искусница скачать торрент
    Марья Искусница смотреть онлайн
    Cкачать фильм Марья Искусница бесплатно
    Марья Искусница скачать торрент в хорошем качестве
    Марья Искусница смотреть онлайн бесплатно в хорошем качестве


    Вы не можете начинать темы
    Вы не можете отвечать на сообщения
    Вы не можете редактировать свои сообщения
    Вы не можете удалять свои сообщения
    Вы не можете голосовать в опросах
    Вы не можете прикреплять файлы к сообщениям
    Вы можете скачивать файлы