Marvel's Avengers Deluxe Edition (супер цена) 159р. Внимание количество ограничено!!!

2 сезон

iTunes

iTunes

1

iTunes

iTunes

iTunes

WEBRip

iTunes

30
pack

Новость дня

ВАЖНО

!!Акция!!

Alien_RageХит недели

RePack

Horizon Zero Dawn

ИГРА 18+

pack

RePack

jed

!!Акция!!

Alien_Rage

RePack

fifa19

RePack

Assassins Creed: Odyssey

RePack

NEED FOR SPEED™ PAYBACK

4 сезон

9 сезон

Бесстыжие 9 сезон

Все сериалы

все сериалы на PB.wtf

RePack

FAR CRY 5
  

Марья Искусница (Александр Роу) [1960, СССР, сказка, семейный, приключения, DVDRip от AVP Studio] piratbit.pw

Марья Искусница через торрент piratbit.pw

Раздают: 1 [ 0 KB/s ]
Размер: 745 MB | Добавлен: 2 года 6 мес. назад | Торрент скачан:26 раз
Скачать  

27-02-2018 08:48 Марья Искусница Скачать торрент  

Марья Искусница
Страна: СССР
Производство: К/ст им. Горького

Жанр: сказка, семейный, приключения
Год выпуска: 1960
Продолжительность: 01:14:56

Перевод: Не требуется
Cубтитры: нет
Оригинальная аудиодорожка: русский

Режиссер: Александр Роу

В ролях:
Михаил Кузнецов, Нинель Мышкова, Виктор Перевалов, Ольга Хачапуридзе, Анатолий Кубацкий, Георгий Милляр, Вера Алтайская, Александр Хвыля, Никита Кондратьев, Сергей Троицкий, Константин Немоляев, Владимир Пицек, Константин Старостин, Михаил Щербаков, Александр Баранов...
Об актёрах подробней

Описание:
После долгой службы возвращался в родные края солдат (Михаил Кузнецов). Идёт солдат по берёзовой роще, песню поёт. Услыхали песню медвежата, подбежали к солдату, просят выручить из капкана их деда. Освободил солдат медведя и пошёл дальше. Вскоре узнал он, что поселилось в лесу чудище неслыханное, и от него идут все напасти. Чудище это – водяной царь Водокрут Тринадцатый(Анатолий Кубацкий), утащивший в своё водяное царство Марью-искусницу (Нинель Мышкова), мать Ванюши (Витя Перевалов), найденного солдатом в лесу.

Источник: DVD9 R5
Качество видео: DVDRip
Формат видео: AVI

Видео: 640x480 (4:3), 25,000 кадров/сек, XviD ~ 1252 kbps avg, 0.163 bit/pixel
Аудио: 48 kHz, MP3 2.0, 128 kbps

Раздача от:
Общее
Полное имя : Mariya-iskusnica.1960.DVDRip-745_[New-team]_by_AVP_Studio.avi
Формат : AVI
Формат/Информация : Audio Video Interleave
Размер файла : 745 Мбайт
Продолжительность : 1 ч. 14 м.
Общий поток : 1390 Кбит/сек
Программа кодирования : VirtualDubMod 1.5.10.3 | www.virtualdub-fr.org || (build 2550/release)
Библиотека кодирования : VirtualDubMod build 2550/release

Видео
Идентификатор : 0
Формат : MPEG-4 Visual
Профиль формата : Advanced Simple@L5
Настройки формата : BVOP1 / Custom Matrix
Параметр BVOP формата : 1
Параметр QPel формата : Нет
Параметр GMC формата : Без точки перехода
Параметр матрицы формата : Выборочная
Идентификатор кодека : XVID
Идентификатор кодека/Подсказка : XviD
Продолжительность : 1 ч. 14 м.
Битрейт : 1252 Кбит/сек
Ширина : 640 пикселей
Высота : 480 пикселей
Соотношение сторон : 4:3
Частота кадров : 25,000 кадров/сек
Цветовое пространство : YUV
Субдискретизация насыщенности : 4:2:0
Битовая глубина : 8 бит
Тип развёртки : Прогрессивная
Метод сжатия : С потерями
Бит/(Пиксели*Кадры) : 0.163
Размер потока : 671 Мбайт (90%)
Библиотека кодирования : XviD 73

Аудио
Идентификатор : 1
Формат : MPEG Audio
Версия формата : Version 1
Профиль формата : Layer 3
Идентификатор кодека : 55
Идентификатор кодека/Подсказка : MP3
Продолжительность : 1 ч. 14 м.
Вид битрейта : Постоянный
Битрейт : 128 Кбит/сек
Каналы : 2 канала
Частота : 48,0 КГц
Частота кадров : 41,667 кадра/сек (1152 SPF)
Метод сжатия : С потерями
Размер потока : 68,6 Мбайт (9%)
Выравнивание : Соединение по промежуткам
Продолжительность промежутка : 40 мс. (1,00 видеокадр)
Время предзагрузки промежутка : 504 мс.
Библиотека кодирования : LAME3.99r
Настройки программы : -m s -V 4 -q 2 -lowpass 17 -b 128
piratbit.pw



Скачать Марья Искусница через торрент http://picplus.ru/img/1802/27/3c5be265.png Скачать фильм Марья Искусница через торрент бесплантно в хорошем качестве Описание:После долгой службы возвращался в родные края солдат (Михаил Кузнецов). Идёт солдат по берёзовой роще, песню поёт. Услыхали песню ... 10 10 1
Info! Золотая раздача, скачанное не засчитывается.
Торрент: Зарегистрирован [2018-02-27 08:48] · скачан: 26 раз
Статус: √ проверено
Размер: 745 MB
Как cкачать? Как скачать Марья Искусница через торрент | qTorrent

% Раздел Тема Автор DL S | L
Детские отечественные фильмы [ 1.09 GB ] Марья Искусница [1960 СССР сказка DVDRip-AVC от AVP Studio] AVP Studio Скачать
1 | 0
Детские отечественные фильмы [ 1.09 GB ] Марья Искусница [1960 СССР сказка DVDRip от AVP Studio] AVP Studio Скачать
1 | 0
Детские отечественные фильмы [ 1.09 GB ] Марья-Искусница [1959 DVDRip] VORLKED Скачать
1 | 0
Русское любительское видео [ 92 MB ] Марья-искусница [2011 Amateur Blondes Blowjob Straight CamRip] nikola22 Скачать
1 | 0

28-11-2019 20:33  

Отключить всю рекламу на сайте

27-02-2018 09:28 Марья Искусница Скачать торрент  

Топик был перенесен из форума Кино СССР в форум Детские отечественные фильмы


bober100piratbit.pw



    Дорогой пользователь! Огромная просьба, поблагодарите релизера, оцените раздачу и оставьте свои комментарий, если Вы скачали Марья Искусница через торрент бесплатно! Внесите свою лепту в развитие PiratBit!
    Комментировать посты могут только пользователи прошедшие не сложную регистрацию
    Показать сообщения:    

    Марья Искусница через торрент
    Скачать бесплатно Марья Искусница
    Марья Искусница скачать торрент
    Марья Искусница смотреть онлайн
    Cкачать фильм Марья Искусница бесплатно
    Марья Искусница скачать торрент в хорошем качестве
    Марья Искусница смотреть онлайн бесплатно в хорошем качестве


    Вы не можете начинать темы
    Вы не можете отвечать на сообщения
    Вы не можете редактировать свои сообщения
    Вы не можете удалять свои сообщения
    Вы не можете голосовать в опросах
    Вы не можете прикреплять файлы к сообщениям
    Вы можете скачивать файлы