Marvel's Avengers Deluxe Edition (супер цена) 159р. Внимание количество ограничено!!!

2 сезон

iTunes

iTunes

1

iTunes

iTunes

iTunes

WEBRip

iTunes

30
pack

Новость дня

ВАЖНО

!!Акция!!

Alien_RageХит недели

RePack

Horizon Zero Dawn

ИГРА 18+

pack

RePack

jed

!!Акция!!

Alien_Rage

RePack

fifa19

RePack

Assassins Creed: Odyssey

RePack

NEED FOR SPEED™ PAYBACK

4 сезон

9 сезон

Бесстыжие 9 сезон

Все сериалы

все сериалы на PB.wtf

RePack

FAR CRY 5
  

Последний богатырь (Дмитрий Дьяченко) [2017, Комедия, семейный, фэнтези, BDRip 1080p] [Лицензия] piratbit.pw

Последний богатырь через торрент piratbit.pw

Размер: 7.97 GB | Добавлен: 2 года 7 мес. назад | Торрент скачан:538 раз
Скачать  

15-02-2018 01:46 Последний богатырь Скачать торрент  

Последний богатырьГод выпуска: 2017
Страна: Россия
Жанр: Комедия, семейный, фэнтези
Продолжительность: 01:53:58
Перевод: не требуется | Лицензия
Субтитры: отсутствуют

Режиссер: Дмитрий Дьяченко

rating

В ролях:

Виктор Хориняк, Мила Сивацкая, Екатерина Вилкова, Елена Яковлева, Константин Лавроненко, Евгений Дятлов, Александр Семчев, Сергей Бурунов, Александр Кухаренко, Марина Калецкая

Описание:

Иван, обычный парень, по воле случая переносится из современной Москвы в фантастическую страну Белогорье. В этом параллельном мире живут герои русских сказок, волшебство — неотъемлемая часть быта, а спорные вопросы решаются битвой на богатырских мечах. Неожиданно Иван оказывается в самом центре борьбы светлых и темных сил, вот только непонятно, почему главная роль в происходящих событиях, по всеобщему мнению, уготована именно ему.

Качество: BDRip 1080p
Формат: MKV
Видео кодек: H.264
Аудио кодек: AC3

Видео: MPEG-4 AVC, 9573 Кбит/с, 1920x804, 24 кадр/с
Аудио: АС3, 6 ch, 448 Кбит/с
скриншот   скриншот   скриншот   скриншот   скриншот   скриншот  

Общее
Уникальный идентификатор : 225335386058466112463271325003987013821 (0xA9860449FD92F8A78FE426DA972FD0BD)
Полное имя : D:ЗагрузкиPosledniy.Bogatyr.2017.x264.BDRip.(1080p).OlLanDGroup.mkv
Формат : Matroska
Версия формата : Version 4 / Version 2
Размер файла : 7,97 Гбайт
Продолжительность : 1 ч. 53 м.
Общий поток : 10,0 Мбит/сек
Название фильма : Последний богатырь.2017.Rip by: ollan
Дата кодирования : UTC 2018-02-14 22:06:43
Программа кодирования : mkvmerge v6.5.0 ('Isn't she lovely') built on Oct 20 2013 12:50:05
Библиотека кодирования : libebml v1.3.0 + libmatroska v1.4.1
Attachements : Cover - Posledniy.Bogatyr..png

Видео
Идентификатор : 1
Формат : AVC
Формат/Информация : Advanced Video Codec
Профиль формата : High@L4.1
Параметр CABAC формата : Да
Параметр ReFrames формата : 5 кадров
Идентификатор кодека : V_MPEG4/ISO/AVC
Продолжительность : 1 ч. 53 м.
Битрейт : 9573 Кбит/сек
Ширина : 1920 пикселей
Высота : 804 пикселя
Соотношение сторон : 2,40:1
Режим частоты кадров : Постоянный
Частота кадров : 24,000 кадра/сек
Цветовое пространство : YUV
Субдискретизация насыщенности : 4:2:0
Битовая глубина : 8 бит
Тип развёртки : Прогрессивная
Бит/(Пиксели*Кадры) : 0.258
Размер потока : 7,45 Гбайт (94%)
Библиотека кодирования : x264 core 146 r2538 121396c
Настройки программы : cabac=1 / ref=5 / deblock=1:-3:-3 / analyse=0x3:0x133 / me=umh / subme=11 / psy=1 / psy_rd=1.00:0.07 / mixed_ref=1 / me_range=64 / chroma_me=1 / trellis=2 / 8x8dct=1 / cqm=0 / deadzone=21,11 / fast_pskip=0 / chroma_qp_offset=-3 / threads=12 / lookahead_threads=3 / sliced_threads=0 / nr=0 / decimate=0 / interlaced=0 / bluray_compat=0 / constrained_intra=0 / bframes=10 / b_pyramid=2 / b_adapt=2 / b_bias=0 / direct=3 / weightb=1 / open_gop=0 / weightp=2 / keyint=240 / keyint_min=24 / scenecut=40 / intra_refresh=0 / rc_lookahead=40 / rc=2pass / mbtree=0 / bitrate=9573 / ratetol=1.0 / qcomp=0.60 / qpmin=0 / qpmax=69 / qpstep=4 / cplxblur=20.0 / qblur=0.5 / vbv_maxrate=50000 / vbv_bufsize=62500 / nal_hrd=none / filler=0 / ip_ratio=1.40 / pb_ratio=1.30 / aq=1:1.00
Язык : Russian
Default : Да
Forced : Нет

Аудио
Идентификатор : 2
Формат : AC-3
Формат/Информация : Audio Coding 3
Расширение режима : CM (complete main)
Параметр Endianness формата : Big
Идентификатор кодека : A_AC3
Продолжительность : 1 ч. 53 м.
Вид битрейта : Постоянный
Битрейт : 448 Кбит/сек
Каналы : 6 каналов
Расположение каналов : Front: L C R, Side: L R, LFE
Частота : 48,0 КГц
Частота кадров : 31,250 кадров/сек (1536 spf)
Метод сжатия : С потерями
Размер потока : 365 Мбайт (4%)
Заголовок : Лицензия
Язык : Russian
Default : Да
Forced : Нет

Меню
00:00:00.000 : ru:Chapter 01
00:14:59.000 : ru:Chapter 02
00:32:41.000 : ru:Chapter 03
00:50:55.458 : ru:Chapter 04
01:06:16.458 : ru:Chapter 05
01:24:54.458 : ru:Chapter 06
01:38:13.000 : ru:Chapter 07
01:53:57.416 : ru:Chapter 08

x264 [info]: frame I:1553 Avg QP:14.12 size:222446
x264 [info]: frame P:45752 Avg QP:16.77 size: 80604
x264 [info]: frame B:116807 Avg QP:18.18 size: 35422
x264 [info]: consecutive B-frames: 6.4% 6.8% 15.7% 20.8% 14.7% 28.8% 3.9% 0.8% 0.7% 0.4% 1.1%
x264 [info]: mb I I16..4: 14.5% 66.1% 19.4%
x264 [info]: mb P I16..4: 7.3% 28.8% 5.3% P16..4: 23.8% 21.6% 6.1% 0.8% 0.1% skip: 6.3%
x264 [info]: mb B I16..4: 3.0% 6.3% 1.0% B16..8: 30.4% 17.9% 2.9% direct:12.4% skip:26.0% L0:42.8% L1:42.5% BI:14.7%
x264 [info]: 8x8 transform intra:66.0% inter:64.5%
x264 [info]: direct mvs spatial:98.7% temporal:1.3%
x264 [info]: coded y,uvDC,uvAC intra: 58.8% 86.9% 74.2% inter: 24.8% 52.0% 33.2%
x264 [info]: i16 v,h,dc,p: 42% 12% 9% 37%
x264 [info]: i8 v,h,dc,ddl,ddr,vr,hd,vl,hu: 14% 10% 19% 8% 9% 10% 10% 10% 11%
x264 [info]: i4 v,h,dc,ddl,ddr,vr,hd,vl,hu: 31% 12% 27% 4% 6% 5% 5% 5% 5%
x264 [info]: i8c dc,h,v,p: 52% 18% 16% 13%
x264 [info]: Weighted P-Frames: Y:4.0% UV:2.7%
x264 [info]: ref P L0: 53.4% 10.7% 19.9% 7.8% 6.8% 1.4% 0.1%
x264 [info]: ref B L0: 76.9% 16.2% 5.4% 1.5%
x264 [info]: ref B L1: 92.7% 7.3%
x264 [info]: kb/s:9559.23
piratbit.pw



Скачать Последний богатырь через торрент http://c.radikal.ru/c30/1802/21/caaf9d60773e.jpg Скачать фильм Последний богатырь через торрент бесплантно в хорошем качестве Описание:Иван, обычный парень, по воле случая переносится из современной Москвы в фантастическую страну Белогорье. В этом параллельном мире ... 10 10 10
Info! Золотая раздача, скачанное не засчитывается.
Торрент: Зарегистрирован [2018-02-15 01:46] · скачан: 538 раз
Статус: √ проверено
Размер: 7.97 GB
Как cкачать? Как скачать Последний богатырь через торрент | qTorrent

% Раздел Тема Автор DL S | L
Наши новые фильмы 2017 [ 1.46 GB ] Последний богатырь [2017 BDRip-AVC] [] sokol_ok Скачать
3 | 0
Наши фильмы (HD, WEB-DL 720p, 1080p) [ 3.95 GB ] Последний богатырь [2017 BDRip-HEVC 1080p ] [] bober100 Скачать
2 | 0
Наши новые фильмы 2017 [ 1.46 GB ] Последний богатырь [2017 BDRip] [Русский] [] Twi7ter Скачать
1 | 0
Наши новые фильмы 2017 [ 746 MB ] Последний богатырь [2017 BDRip-AVC] [] sokol_ok Скачать
2 | 0
Наши новые фильмы 2017 [ 2.18 GB ] Последний богатырь [2017 BDRip-AVC] [] sokol_ok Скачать
3 | 0
Наши новые фильмы 2017 [ 2.13 GB ] Последний богатырь [2017 BDRip-AVC] [] bober100 Скачать
1 | 0
Наши новые фильмы 2017 [ 746 MB ] Последний богатырь [2017 BDRip] [ Blu-ray RUS] bober100 Скачать
1 | 0

28-11-2019 20:33  

Отключить всю рекламу на сайте

16-02-2018 21:34 Последний богатырь Скачать торрент  

понять не могу откуда рейтинги? это невозможно смотреть. автору спасибо за раздачу на трекере должно быть все.piratbit.pw



    Дорогой пользователь! Огромная просьба, поблагодарите релизера, оцените раздачу и оставьте свои комментарий, если Вы скачали Последний богатырь через торрент бесплатно! Внесите свою лепту в развитие PiratBit!
    Комментировать посты могут только пользователи прошедшие не сложную регистрацию
    Показать сообщения:    

    Последний богатырь через торрент
    Скачать бесплатно Последний богатырь
    Последний богатырь скачать торрент
    Последний богатырь смотреть онлайн
    Cкачать фильм Последний богатырь бесплатно
    Последний богатырь скачать торрент в хорошем качестве
    Последний богатырь смотреть онлайн бесплатно в хорошем качестве


    Вы не можете начинать темы
    Вы не можете отвечать на сообщения
    Вы не можете редактировать свои сообщения
    Вы не можете удалять свои сообщения
    Вы не можете голосовать в опросах
    Вы не можете прикреплять файлы к сообщениям
    Вы можете скачивать файлы