1 сезон

1 сезон

iTunes

1

iTunes

Кинопоиск HD

iTunes

13

1 сезон

RePack

30

Deluxe

ВАЖНО

ИГРА 18+

pack

RePack

MK11
pack

Легкие деньги

RePack

jed

RePack

fifa19

RePack

RDR2

RePack

NEED FOR SPEED™ PAYBACK

4 сезон

9 сезон

Бесстыжие 9 сезон

Все сериалы

все сериалы на PB.wtf

RePack

FAR CRY 5
  
Magnet ссылка

Теперь ты в армии / Kein Bund furs Leben (Гранц Хенман) [2007 г., Комедия, DVDRip-AVC, Профессиональный (многоголосый)] от ExKinoRay piratbit.pw

Теперь ты в армии через торрент piratbit.pw

Размер: 1.86 GB | Добавлен: 3 года 3 мес. назад | Торрент скачан:70 раз
Скачать  

10-02-2018 08:03 Теперь ты в армии Скачать торрент  

Теперь ты в армии / Kein Bund furs Leben
Год выпуска: 2007
Страна: Германия
Жанр: Комедия
Продолжительность: 01:26:01
Перевод: Профессиональный (многоголосый)

Режиссер: Гранц Хенман

Премьера в мире: 30 августа 2007

rating

В ролях: Франц Динда, Флориан Лукас, Аксель Штайн, Ян Хенрик Сталберг, Кристиан Зенгевальд, Рональд Ничке, Карстен Норгаард, Филипп Рейнхарт, Майкл Бранднер, Майкл Дорн, Жан-Люк Жюльен, Арни Ленк, Джозеф М’Барек, Кристиан Мейер, Люси Пол, Марен Шил

Описание: Молодой парень по имени Басти очень не хочет идти в армию. Пытаясь откосить от службы, Басти просит своего друга о помощи. Друг дает нашему герою анализы знакомой девчонки, у которой диабет, Басти сдает их как свои… но оказывается, что девчонка-то беременна! А поверить в то, что Басти забеременел, военком отказывается наотрез! Анализы — в унитаз, Басти — в казарму! Теперь его ждут такие приключения, о которых он даже не смел мечтать!

Качество: DVDRip-AVC
Формат: MKV
Видео кодек: MPEG4
Аудио кодек: AC3
Видео: MPEG-4 AVC, 2200 Кбит/с, 718x424@1020x424, 25 кадров/сек
Аудио#1: Русский (AC3, 6 ch, 448 Кбит/с, 48 КГц)
Аудио#2: Немецкий (AC3, 6 ch, 448 Кбит/с, 48 КГц)
Релиз от:




raw [info]: 718x424p 64:45 @ 25/1 fps (cfr)
x264 [info]: using SAR=64/45
x264 [info]: using cpu capabilities: MMX2 SSE2Fast LZCNT
x264 [info]: profile High, level 4.1
x264 [info]: frame I:1093 Avg QP:14.05 size: 53638
x264 [info]: frame P:32825 Avg QP:16.93 size: 21332
x264 [info]: frame B:95127 Avg QP:18.59 size: 6945
x264 [info]: consecutive B-frames: 3.6% 5.3% 14.5% 23.1% 21.5% 25.8% 4.9% 0.5% 0.4% 0.3% 0.1% 0.0% 0.1% 0.0% 0.0% 0.0% 0.1%
-----
Общее
Уникальный идентификатор : 251076908762580340717953561925934686724 (0xBCE3A7586CB7D91699E411AACE40A204)
Полное имя : D:\ExKinoRay\InTheArmyNow.2007.DVDRip-AVC.ExKinoRay.mkv
Формат : Matroska
Версия формата : Version 2
Размер файла : 1,86 Гбайт
Продолжительность : 1 ч. 26 м.
Общий поток : 3098 Кбит/сек
Дата кодирования : UTC 2018-02-10 03:25:58
Программа кодирования : mkvmerge v7.8.0 ('River Man') 32bit built on Apr 3 2015 12:11:22
Библиотека кодирования : libebml v1.3.1 + libmatroska v1.4.2

Видео
Идентификатор : 1
Формат : AVC
Формат/Информация : Advanced Video Codec
Профиль формата : High@L4.1
Параметр CABAC формата : Да
Параметр ReFrames формата : 14 кадров
Идентификатор кодека : V_MPEG4/ISO/AVC
Продолжительность : 1 ч. 26 м.
Битрейт : 2200 Кбит/сек
Ширина : 718 пикселей
Высота : 424 пикселя
Соотношение сторон : 2,40:1
Режим частоты кадров : Постоянный
Частота кадров : 25,000 кадров/сек
Цветовое пространство : YUV
Субдискретизация насыщенности : 4:2:0
Битовая глубина : 8 бит
Тип развёртки : Прогрессивная
Бит/(Пиксели*Кадры) : 0.289
Размер потока : 1,29 Гбайт (69%)
Библиотека кодирования : x264 core 148 r2638 7599210
Настройки программы : cabac=1 / ref=14 / deblock=1:-2:-2 / analyse=0x3:0x133 / me=umh / subme=10 / psy=1 / psy_rd=1.05:0.15 / mixed_ref=1 / me_range=32 / chroma_me=1 / trellis=2 / 8x8dct=1 / cqm=0 / deadzone=21,11 / fast_pskip=0 / chroma_qp_offset=-3 / threads=4 / lookahead_threads=1 / sliced_threads=0 / nr=0 / decimate=0 / interlaced=0 / bluray_compat=0 / constrained_intra=0 / bframes=16 / b_pyramid=2 / b_adapt=2 / b_bias=0 / direct=3 / weightb=1 / open_gop=0 / weightp=2 / keyint=250 / keyint_min=25 / scenecut=40 / intra_refresh=0 / rc=2pass / mbtree=0 / bitrate=2200 / ratetol=1.0 / qcomp=0.60 / qpmin=0 / qpmax=69 / qpstep=4 / cplxblur=20.0 / qblur=0.5 / ip_ratio=1.40 / pb_ratio=1.30 / aq=1:1.00
Язык : English
Default : Да
Forced : Нет
Цветовой диапазон : Limited
Основные цвета : BT.601 NTSC
Характеристики трансфера : BT.601
Коэффициенты матрицы : BT.601

Аудио #1
Идентификатор : 2
Формат : AC-3
Формат/Информация : Audio Coding 3
Расширение режима : CM (complete main)
Параметр Endianness формата : Big
Идентификатор кодека : A_AC3
Продолжительность : 1 ч. 26 м.
Вид битрейта : Постоянный
Битрейт : 448 Кбит/сек
Каналы : 6 каналов
Расположение каналов : Front: L C R, Side: L R, LFE
Частота : 48,0 КГц
Частота кадров : 31,250 кадров/сек (1536 spf)
Метод сжатия : С потерями
Размер потока : 276 Мбайт (14%)
Язык : Russian
Default : Да
Forced : Нет

Аудио #2
Идентификатор : 3
Формат : AC-3
Формат/Информация : Audio Coding 3
Расширение режима : CM (complete main)
Параметр Endianness формата : Big
Идентификатор кодека : A_AC3
Продолжительность : 1 ч. 26 м.
Вид битрейта : Постоянный
Битрейт : 448 Кбит/сек
Каналы : 6 каналов
Расположение каналов : Front: L C R, Side: L R, LFE
Частота : 48,0 КГц
Частота кадров : 31,250 кадров/сек (1536 spf)
Метод сжатия : С потерями
Размер потока : 276 Мбайт (14%)
Язык : German
Default : Нет
Forced : Нет

piratbit.pw



Скачать Теперь ты в армии через торрент http://d.radikal.ru/d33/1802/a6/9fc2251e5920.jpg Скачать фильм Теперь ты в армии через торрент бесплантно в хорошем качестве Описание: Молодой парень по имени Басти очень не хочет идти в армию. Пытаясь откосить от службы, Басти просит своего друга о помощи. Друг ... 5.5 10 2
Info! Золотая раздача, скачанное не засчитывается.
Торрент: Зарегистрирован [2018-02-10 08:03] · скачан: 70 раз
Статус: √ проверено
Размер: 1.86 GB
Как cкачать? Как скачать Теперь ты в армии через торрент | UTorrent

28-11-2019 20:33  

Отключить всю рекламу на сайте

10-02-2018 08:53 Теперь ты в армии Скачать торрент  

Топик был перенесен из форума Оформление раздач (Кино, Видео и ТВ) в форум Фильмы 2006-2008


bober100piratbit.pw



    Дорогой пользователь! Огромная просьба, поблагодарите релизера, оцените раздачу и оставьте свои комментарий, если Вы скачали Теперь ты в армии через торрент бесплатно! Внесите свою лепту в развитие PiratBit!
    Комментировать посты могут только пользователи прошедшие не сложную регистрацию
    Показать сообщения:    

    Теперь ты в армии через торрент
    Скачать бесплатно Теперь ты в армии
    Теперь ты в армии скачать торрент
    Теперь ты в армии смотреть онлайн
    Cкачать фильм Теперь ты в армии бесплатно
    Теперь ты в армии скачать торрент в хорошем качестве
    Теперь ты в армии смотреть онлайн бесплатно в хорошем качестве


    Вы не можете начинать темы
    Вы не можете отвечать на сообщения
    Вы не можете редактировать свои сообщения
    Вы не можете удалять свои сообщения
    Вы не можете голосовать в опросах
    Вы не можете прикреплять файлы к сообщениям
    Вы можете скачивать файлы