1 сезон

1 сезон

iTunes

1

КиноПоиск HD

Кинопоиск HD

iTunes

13

1 сезон

RePack

30

Новинка

ВАЖНО

ИГРА 18+

pack

RePack

MK11
pack

Легкие деньги

RePack

jed

RePack

fifa19

RePack

RDR2

RePack

NEED FOR SPEED™ PAYBACK

4 сезон

9 сезон

Бесстыжие 9 сезон

Все сериалы

все сериалы на PB.wtf

RePack

FAR CRY 5
  
Magnet ссылка

Разденься для убийцы / Nude per l'assassino (Андреа Бьянки) [1975 г., триллер, детектив, BDRip-AVC] AVO (Алексеев) piratbit.pw

Разденься для убийцы через торрент piratbit.pw

Размер: 2.18 GB | Добавлен: 3 года 2 мес. назад | Торрент скачан:13 раз
Скачать  

03-02-2018 14:34 Разденься для убийцы Скачать торрент  

Разденься для убийцы / Nude per l'assassino
Год выпуска: 1975
Страна: Италия
Жанр: триллер, детектив
Продолжительность: 01:37:58
Перевод: Авторский (Алексеев)
Субтитры: Английские

Режиссер: Андреа Бьянки

rating

В ролях: Эдвиж Фенек, Нино Кастельнуово, Феми Бенусси, Зольви Штубинг, Аманда, Франко Диоджене, Лучио Комо, Эрна Шурер, Джанни Айро, Сильвана Депрето, Ашиль Гриони Джузеппе Мешелла, Филиппо Ла Нив, Клаудио Пеллегрини, Вайнер Верри, Родольфо Зоула

Описание: Во время криминального аборта умерла сотрудница модельного агентства. Спустя некоторое время мститель в черном комбинезоне и мотоциклетном шлеме начинает вырезать всех причастных к этому агентству.

Качество: BDRip-AVC (Strip.Nude.for.You.Killer.1975.1080p.Bluray.AVC.Remux.HDCLUB)
Формат: MKV
Видео: MPEG-4 AVC, 2604 Кбит/с, 1024x428, 23.976 кадр/с
Аудио #1: AC3, 2 ch, 192 Кбит/с | Русский
Аудио #2: AC3, 2 ch, 192 Кбит/с | Английский
Аудио #3: AC3, 2 ch, 192 Кбит/с | Итальянский
Релиз от: Koenig
скриншот   скриншот   скриншот   скриншот   скриншот   скриншот  

Общее
Уникальный идентификатор : 191953812531070400700597466191224776034 (0x9068F5A505ABDA8BA5FDF83BAAB22562)
Полное имя : Раздача\Strip.Nude.for.You.Killer.1975.BDRip.AVC.mkv
Формат : Matroska
Версия формата : Version 4 / Version 2
Размер файла : 2,18 Гбайт
Продолжительность : 1 ч. 37 м.
Общий поток : 3181 Кбит/сек
Название фильма : Strip.Nude.for.You.Killer.1975.BDRip.AVC by Koenig
Дата кодирования : UTC 2018-02-03 11:54:44
Программа кодирования : mkvmerge v12.0.0 ('Trust / Lust') 32bit
Библиотека кодирования : libebml v1.3.4 + libmatroska v1.4.5
Обложка : Yes
Attachments : cover.jpg

Видео
Идентификатор : 1
Формат : AVC
Формат/Информация : Advanced Video Codec
Профиль формата : High@L4.1
Параметр CABAC формата : Да
Параметр ReFrames формата : 11 кадров
Идентификатор кодека : V_MPEG4/ISO/AVC
Продолжительность : 1 ч. 37 м.
Битрейт : 2604 Кбит/сек
Ширина : 1024 пикселя
Высота : 428 пикселей
Соотношение сторон : 2,40:1
Режим частоты кадров : Постоянный
Частота кадров : 23,976 (24000/1001) кадра/сек
Цветовое пространство : YUV
Субдискретизация насыщенности : 4:2:0
Битовая глубина : 8 бит
Тип развёртки : Прогрессивная
Бит/(Пиксели*Кадры) : 0.248
Размер потока : 1,78 Гбайт (82%)
Заголовок : Strip.Nude.for.You.Killer.1975.BDRip.AVC
Библиотека кодирования : x264 core 152 r2851 ba24899
Настройки программы : cabac=1 / ref=11 / deblock=1:-3:-3 / analyse=0x3:0x133 / me=umh / subme=10 / psy=1 / psy_rd=1.10:0.10 / mixed_ref=1 / me_range=32 / chroma_me=1 / trellis=2 / 8x8dct=1 / cqm=0 / deadzone=21,11 / fast_pskip=0 / chroma_qp_offset=-3 / threads=3 / lookahead_threads=1 / sliced_threads=0 / nr=0 / decimate=1 / interlaced=0 / bluray_compat=0 / constrained_intra=0 / bframes=8 / b_pyramid=2 / b_adapt=2 / b_bias=0 / direct=3 / weightb=1 / open_gop=0 / weightp=2 / keyint=240 / keyint_min=23 / scenecut=40 / intra_refresh=0 / rc_lookahead=40 / rc=2pass / mbtree=1 / bitrate=2604 / ratetol=1.0 / qcomp=0.60 / qpmin=10 / qpmax=51 / qpstep=4 / cplxblur=20.0 / qblur=0.5 / vbv_maxrate=50000 / vbv_bufsize=62500 / nal_hrd=none / filler=0 / ip_ratio=1.40 / aq=1:1.00
Default : Да
Forced : Нет

Аудио #1
Идентификатор : 2
Формат : AC-3
Формат/Информация : Audio Coding 3
Параметр Endianness формата : Big
Идентификатор кодека : A_AC3
Продолжительность : 1 ч. 37 м.
Вид битрейта : Постоянный
Битрейт : 192 Кбит/сек
Каналы : 2 канала
Расположение каналов : Front: L R
Частота : 48,0 КГц
Частота кадров : 31,250 кадров/сек (1536 spf)
Битовая глубина : 16 бит
Метод сжатия : С потерями
Размер потока : 135 Мбайт (6%)
Заголовок : AVO - А. Алексеев
Язык : Russian
ServiceKind/String : Complete Main
Default : Да
Forced : Нет

Аудио #2
Идентификатор : 3
Формат : AC-3
Формат/Информация : Audio Coding 3
Параметр Endianness формата : Big
Идентификатор кодека : A_AC3
Продолжительность : 1 ч. 37 м.
Вид битрейта : Постоянный
Битрейт : 192 Кбит/сек
Каналы : 2 канала
Расположение каналов : Front: L R
Частота : 48,0 КГц
Частота кадров : 31,250 кадров/сек (1536 spf)
Битовая глубина : 16 бит
Метод сжатия : С потерями
Размер потока : 135 Мбайт (6%)
Язык : English
ServiceKind/String : Complete Main
Default : Нет
Forced : Нет

Аудио #3
Идентификатор : 4
Формат : AC-3
Формат/Информация : Audio Coding 3
Параметр Endianness формата : Big
Идентификатор кодека : A_AC3
Продолжительность : 1 ч. 37 м.
Вид битрейта : Постоянный
Битрейт : 192 Кбит/сек
Каналы : 2 канала
Расположение каналов : Front: L R
Частота : 48,0 КГц
Частота кадров : 31,250 кадров/сек (1536 spf)
Битовая глубина : 16 бит
Метод сжатия : С потерями
Размер потока : 135 Мбайт (6%)
Язык : Italian
ServiceKind/String : Complete Main
Default : Нет
Forced : Нет

Текст
Идентификатор : 5
Формат : UTF-8
Идентификатор кодека : S_TEXT/UTF8
Идентификатор кодека/Информация : UTF-8 Plain Text
Продолжительность : 1 ч. 37 м.
Битрейт : 59 бит/сек
ElementCount : 1201
Размер потока : 42,7 Кбайт (0%)
Язык : English
Default : Да
Forced : Нет

Меню
00:00:00.000 : en:Chapter 1
00:02:16.928 : en:Chapter 2
00:06:07.283 : en:Chapter 3
00:11:33.775 : en:Chapter 4
00:16:14.348 : en:Chapter 5
00:19:41.638 : en:Chapter 6
00:24:01.231 : en:Chapter 7
00:28:10.647 : en:Chapter 8
00:30:43.925 : en:Chapter 9
00:36:33.565 : en:Chapter 10
00:40:33.597 : en:Chapter 11
00:44:06.768 : en:Chapter 12
00:46:49.181 : en:Chapter 13
00:51:46.143 : en:Chapter 14
00:56:09.532 : en:Chapter 15
01:02:50.349 : en:Chapter 16
01:07:26.959 : en:Chapter 17
01:10:21.675 : en:Chapter 18
01:13:09.176 : en:Chapter 19
01:18:23.073 : en:Chapter 20
01:21:52.032 : en:Chapter 21
01:26:10.164 : en:Chapter 22
01:28:58.041 : en:Chapter 23
01:35:04.240 : en:Chapter 24
01:37:57.830 : en:

piratbit.pw



Скачать Разденься для убийцы через торрент http://img12.lostpic.net/2018/02/03/303edec67848977938d4f701d5d176f5.jpg Скачать фильм Разденься для убийцы через торрент бесплантно в хорошем качестве Описание: Во время криминального аборта умерла сотрудница модельного агентства. Спустя некоторое время мститель в черном комбинезоне и ... 10 10 1
Торрент: Зарегистрирован [2018-02-03 14:34] · скачан: 13 раз
Статус: √ проверено
Размер: 2.18 GB
Как cкачать? Как скачать Разденься для убийцы через торрент | UTorrent

28-11-2019 20:33  

Отключить всю рекламу на сайте

    Дорогой пользователь! Огромная просьба, поблагодарите релизера, оцените раздачу и оставьте свои комментарий, если Вы скачали Разденься для убийцы через торрент бесплатно! Внесите свою лепту в развитие PiratBit!
    Комментировать посты могут только пользователи прошедшие не сложную регистрацию
    Показать сообщения:    

    Разденься для убийцы через торрент
    Скачать бесплатно Разденься для убийцы
    Разденься для убийцы скачать торрент
    Разденься для убийцы смотреть онлайн
    Cкачать фильм Разденься для убийцы бесплатно
    Разденься для убийцы скачать торрент в хорошем качестве
    Разденься для убийцы смотреть онлайн бесплатно в хорошем качестве


    Вы не можете начинать темы
    Вы не можете отвечать на сообщения
    Вы не можете редактировать свои сообщения
    Вы не можете удалять свои сообщения
    Вы не можете голосовать в опросах
    Вы не можете прикреплять файлы к сообщениям
    Вы можете скачивать файлы