1 сезон

1 сезон

iTunes

1

КиноПоиск HD

Кинопоиск HD

iTunes

13

1 сезон

RePack

30

Ultimate

ВАЖНО

ИГРА 18+

pack

RePack

MK11
pack

Легкие деньги

RePack

jed

RePack

fifa19

RePack

RDR2

RePack

NEED FOR SPEED™ PAYBACK

4 сезон

9 сезон

Бесстыжие 9 сезон

Все сериалы

все сериалы на PB.wtf

RePack

FAR CRY 5
  
Magnet ссылка

Большой фанат / Big Fan (Роберт Д. Сигел) [2009 г, драма, комедия, криминал, спорт, WEB-DLRip] AVO (Чадов) piratbit.pw

Большой фанат через торрент piratbit.pw

Размер: 1.45 GB | Добавлен: 3 года 2 мес. назад | Торрент скачан:3 раза
Скачать  

31-01-2018 15:49 Большой фанат Скачать торрент  

Большой фанат / Big Fan
Год выпуска: 2009
Страна: США
Жанр: драма, комедия, криминал, спорт
Продолжительность: 01:28:17
Перевод: Авторский (Чадов)

Режиссер: Роберт Д. Сигел

rating

В ролях: Пэттон Освальт, Кевин Корригэн, Майкл Рапапорт, Марсия Жан Курц, Мэтт Сервитто, Джино Кафарелли, Серафина Фьоре, Джонатан Хэмм, Том Эпштейн, Сидне Андерсон, Джонатан Хэм

Описание: Пол — ярый футбольный фанат «New York Giants» — изрядно достал своего любимого игрока команды и тот его избил в порыве гнева. Друзья советуют Полу подать в суд, но что-то фаната останавливает…

Качество: WEB-DLRip
Формат: AVI
Видео: XviD, 1894 Кбит/с, 720x384, 23.976 Кадр/с
Аудио: AC3, 6 ch, 448 Кбит/с
Релиз от: Koenig
скриншот   скриншот   скриншот   скриншот   скриншот   скриншот  

Общее
Полное имя : Big.Fan.2009.WEB-DLRip.avi
Формат : AVI
Формат/Информация : Audio Video Interleave
Размер файла : 1,45 Гбайт
Продолжительность : 1 ч. 28 м.
Общий поток : 2351 Кбит/сек
Программа кодирования : VirtualDubMod 1.5.10.2 (build 2540/release)
Библиотека кодирования : VirtualDubMod build 2540/release

Видео
Идентификатор : 0
Формат : MPEG-4 Visual
Профиль формата : Advanced Simple@L5
Параметр BVOP формата : 1
Параметр QPel формата : Нет
Параметр GMC формата : Без точки перехода
Параметр матрицы формата : Выборочная
Идентификатор кодека : XVID
Идентификатор кодека/Подсказка : XviD
Продолжительность : 1 ч. 28 м.
Битрейт : 1894 Кбит/сек
Ширина : 720 пикселей
Высота : 384 пикселя
Соотношение сторон : 1,85:1
Частота кадров : 23,976 (24000/1001) кадра/сек
Цветовое пространство : YUV
Субдискретизация насыщенности : 4:2:0
Битовая глубина : 8 бит
Тип развёртки : Прогрессивная
Метод сжатия : С потерями
Бит/(Пиксели*Кадры) : 0.286
Размер потока : 1,17 Гбайт (81%)
Библиотека кодирования : XviD 65

Аудио
Идентификатор : 1
Формат : AC-3
Формат/Информация : Audio Coding 3
Параметр Endianness формата : Big
Идентификатор кодека : 2000
Продолжительность : 1 ч. 28 м.
Вид битрейта : Постоянный
Битрейт : 448 Кбит/сек
Каналы : 6 каналов
Расположение каналов : Front: L C R, Side: L R, LFE
Частота : 48,0 КГц
Частота кадров : 31,250 кадров/сек (1536 spf)
Битовая глубина : 16 бит
Метод сжатия : С потерями
Размер потока : 283 Мбайт (19%)
Выравнивание : Разделение по промежуткам
Продолжительность промежутка : 42 мс. (1,00 видеокадр)
Время предзагрузки промежутка : 500 мс.
ServiceKind/String : Complete Main

piratbit.pw



Скачать Большой фанат через торрент http://img12.lostpic.net/2018/01/31/b14f9f882d3fee3fe9f0436319a12bec.jpg Скачать фильм Большой фанат через торрент бесплантно в хорошем качестве Описание: Пол — ярый футбольный фанат «New York Giants» — изрядно достал своего любимого игрока команды и тот его избил в порыве гнева. ... 1 10 1
Торрент: Зарегистрирован [2018-01-31 15:49] · скачан: 3 раз
Статус: √ проверено
Размер: 1.45 GB
Как cкачать? Как скачать Большой фанат через торрент | UTorrent

% Раздел Тема Автор DL S | L
Гонзо [ 4.19 GB ] Большой Фанат / Biggest Fan [2020 All Sex WEB-DL] bashai5 Скачать
2 | 0
Порно фильмы HD [ 29.3 GB ] Фанаты Больших Сисек 123 / Big Tit Fanatic 123 [2011-2013 Anal Gonzo Busty Interracial Hardcore WEB-DL 1080p] Бавария Скачать
1 | 0
Гонзо [ 1.43 GB ] Фанаты Больших Сисек 3 / Big Tit Fanatic 3 [2013 Gonzo Big Tits IR MILF Anal VOD Оригинал] 19alexei87 Скачать
1 | 0
Порно фильмы HD [ 2.57 GB ] Фанаты Больших Сисек 2 / Big Tit Fanatic 2 [2013 Anal Gonzo Busty Interracial Hardcore WEB-DL 540p Оригинал] SKAV Скачать
1 | 0
Порно фильмы HD [ 4.39 GB ] Фанаты Больших Сисек 2 / Big Tit Fanatic 2 [2013 Anal Gonzo Busty Interracial Hardcore WEB-DL 720p Оригинал] SKAV Скачать
1 | 0
Порно фильмы HD [ 9.85 GB ] Фанаты Больших Сисек 2 / Big Tit Fanatic 2 [2013 Anal Gonzo Busty Interracial Hardcore WEB-DL 1080p Оригинал] SKAV Скачать
1 | 0
Порно фильмы HD [ 5.41 GB ] Фанаты Больших Сисек / Big Tit Fanatic [2011 Gonzo Big Boobs Anal WEB-DL 720p Оригинал] SKAV Скачать
1 | 0

28-11-2019 20:33  

Отключить всю рекламу на сайте

    Дорогой пользователь! Огромная просьба, поблагодарите релизера, оцените раздачу и оставьте свои комментарий, если Вы скачали Большой фанат через торрент бесплатно! Внесите свою лепту в развитие PiratBit!
    Комментировать посты могут только пользователи прошедшие не сложную регистрацию
    Показать сообщения:    

    Большой фанат через торрент
    Скачать бесплатно Большой фанат
    Большой фанат скачать торрент
    Большой фанат смотреть онлайн
    Cкачать фильм Большой фанат бесплатно
    Большой фанат скачать торрент в хорошем качестве
    Большой фанат смотреть онлайн бесплатно в хорошем качестве


    Вы не можете начинать темы
    Вы не можете отвечать на сообщения
    Вы не можете редактировать свои сообщения
    Вы не можете удалять свои сообщения
    Вы не можете голосовать в опросах
    Вы не можете прикреплять файлы к сообщениям
    Вы можете скачивать файлы